  0
SECTION
  2
HEADER
  9
$ACADVER
  1
AC1015
  9
$ACADMAINTVER
 70
     6
  9
$DWGCODEPAGE
  3
ANSI_1252
  9
$INSBASE
 10
0.0
 20
0.0
 30
0.0
  9
$EXTMIN
 10
-0.00000000000011
 20
0.0
 30
0.0
  9
$EXTMAX
 10
297.0
 20
210.0000000000001
 30
0.0
  9
$LIMMIN
 10
0.0
 20
0.0
  9
$LIMMAX
 10
12.0
 20
9.0
  9
$ORTHOMODE
 70
     0
  9
$REGENMODE
 70
     1
  9
$FILLMODE
 70
     1
  9
$QTEXTMODE
 70
     0
  9
$MIRRTEXT
 70
     1
  9
$LTSCALE
 40
1.0
  9
$ATTMODE
 70
     1
  9
$TEXTSIZE
 40
0.2
  9
$TRACEWID
 40
0.05
  9
$TEXTSTYLE
  7
Standard
  9
$CLAYER
  8
0
  9
$CELTYPE
  6
ByLayer
  9
$CECOLOR
 62
   256
  9
$CELTSCALE
 40
1.0
  9
$DISPSILH
 70
     0
  9
$DIMSCALE
 40
1.0
  9
$DIMASZ
 40
0.18
  9
$DIMEXO
 40
0.0625
  9
$DIMDLI
 40
0.38
  9
$DIMRND
 40
0.0
  9
$DIMDLE
 40
0.0
  9
$DIMEXE
 40
0.18
  9
$DIMTP
 40
0.0
  9
$DIMTM
 40
0.0
  9
$DIMTXT
 40
0.18
  9
$DIMCEN
 40
0.09
  9
$DIMTSZ
 40
0.0
  9
$DIMTOL
 70
     0
  9
$DIMLIM
 70
     0
  9
$DIMTIH
 70
     1
  9
$DIMTOH
 70
     1
  9
$DIMSE1
 70
     0
  9
$DIMSE2
 70
     0
  9
$DIMTAD
 70
     0
  9
$DIMZIN
 70
     0
  9
$DIMBLK
  1

  9
$DIMASO
 70
     1
  9
$DIMSHO
 70
     1
  9
$DIMPOST
  1

  9
$DIMAPOST
  1

  9
$DIMALT
 70
     0
  9
$DIMALTD
 70
     2
  9
$DIMALTF
 40
25.4
  9
$DIMLFAC
 40
1.0
  9
$DIMTOFL
 70
     0
  9
$DIMTVP
 40
0.0
  9
$DIMTIX
 70
     0
  9
$DIMSOXD
 70
     0
  9
$DIMSAH
 70
     0
  9
$DIMBLK1
  1

  9
$DIMBLK2
  1

  9
$DIMSTYLE
  2
Standard
  9
$DIMCLRD
 70
     0
  9
$DIMCLRE
 70
     0
  9
$DIMCLRT
 70
     0
  9
$DIMTFAC
 40
1.0
  9
$DIMGAP
 40
0.09
  9
$DIMJUST
 70
     0
  9
$DIMSD1
 70
     0
  9
$DIMSD2
 70
     0
  9
$DIMTOLJ
 70
     1
  9
$DIMTZIN
 70
     0
  9
$DIMALTZ
 70
     0
  9
$DIMALTTZ
 70
     0
  9
$DIMUPT
 70
     0
  9
$DIMDEC
 70
     4
  9
$DIMTDEC
 70
     4
  9
$DIMALTU
 70
     2
  9
$DIMALTTD
 70
     2
  9
$DIMTXSTY
  7
Standard
  9
$DIMAUNIT
 70
     0
  9
$DIMADEC
 70
     0
  9
$DIMALTRND
 40
0.0
  9
$DIMAZIN
 70
     0
  9
$DIMDSEP
 70
    46
  9
$DIMATFIT
 70
     3
  9
$DIMFRAC
 70
     0
  9
$DIMLDRBLK
  1

  9
$DIMLUNIT
 70
     2
  9
$DIMLWD
 70
    -2
  9
$DIMLWE
 70
    -2
  9
$DIMTMOVE
 70
     0
  9
$LUNITS
 70
     2
  9
$LUPREC
 70
     4
  9
$SKETCHINC
 40
0.1
  9
$FILLETRAD
 40
0.5
  9
$AUNITS
 70
     0
  9
$AUPREC
 70
     0
  9
$MENU
  1
.
  9
$ELEVATION
 40
0.0
  9
$PELEVATION
 40
0.0
  9
$THICKNESS
 40
0.0
  9
$LIMCHECK
 70
     0
  9
$CHAMFERA
 40
0.5
  9
$CHAMFERB
 40
0.5
  9
$CHAMFERC
 40
1.0
  9
$CHAMFERD
 40
0.0
  9
$SKPOLY
 70
     0
  9
$TDCREATE
 40
2457163.63748941
  9
$TDUCREATE
 40
2457163.554156076
  9
$TDUPDATE
 40
2457163.637489769
  9
$TDUUPDATE
 40
2457163.554156435
  9
$TDINDWG
 40
0.0000000116
  9
$TDUSRTIMER
 40
0.0000000116
  9
$USRTIMER
 70
     1
  9
$ANGBASE
 50
0.0
  9
$ANGDIR
 70
     0
  9
$PDMODE
 70
     0
  9
$PDSIZE
 40
0.0
  9
$PLINEWID
 40
0.0
  9
$SPLFRAME
 70
     0
  9
$SPLINETYPE
 70
     6
  9
$SPLINESEGS
 70
     8
  9
$HANDSEED
  5
2DC
  9
$SURFTAB1
 70
     6
  9
$SURFTAB2
 70
     6
  9
$SURFTYPE
 70
     6
  9
$SURFU
 70
     6
  9
$SURFV
 70
     6
  9
$UCSBASE
  2

  9
$UCSNAME
  2

  9
$UCSORG
 10
0.0
 20
0.0
 30
0.0
  9
$UCSXDIR
 10
1.0
 20
0.0
 30
0.0
  9
$UCSYDIR
 10
0.0
 20
1.0
 30
0.0
  9
$UCSORTHOREF
  2

  9
$UCSORTHOVIEW
 70
     0
  9
$UCSORGTOP
 10
0.0
 20
0.0
 30
0.0
  9
$UCSORGBOTTOM
 10
0.0
 20
0.0
 30
0.0
  9
$UCSORGLEFT
 10
0.0
 20
0.0
 30
0.0
  9
$UCSORGRIGHT
 10
0.0
 20
0.0
 30
0.0
  9
$UCSORGFRONT
 10
0.0
 20
0.0
 30
0.0
  9
$UCSORGBACK
 10
0.0
 20
0.0
 30
0.0
  9
$PUCSBASE
  2

  9
$PUCSNAME
  2

  9
$PUCSORG
 10
0.0
 20
0.0
 30
0.0
  9
$PUCSXDIR
 10
1.0
 20
0.0
 30
0.0
  9
$PUCSYDIR
 10
0.0
 20
1.0
 30
0.0
  9
$PUCSORTHOREF
  2

  9
$PUCSORTHOVIEW
 70
     0
  9
$PUCSORGTOP
 10
0.0
 20
0.0
 30
0.0
  9
$PUCSORGBOTTOM
 10
0.0
 20
0.0
 30
0.0
  9
$PUCSORGLEFT
 10
0.0
 20
0.0
 30
0.0
  9
$PUCSORGRIGHT
 10
0.0
 20
0.0
 30
0.0
  9
$PUCSORGFRONT
 10
0.0
 20
0.0
 30
0.0
  9
$PUCSORGBACK
 10
0.0
 20
0.0
 30
0.0
  9
$USERI1
 70
     0
  9
$USERI2
 70
     0
  9
$USERI3
 70
     0
  9
$USERI4
 70
     0
  9
$USERI5
 70
     0
  9
$USERR1
 40
18.1
  9
$USERR2
 40
0.0
  9
$USERR3
 40
0.0
  9
$USERR4
 40
0.0
  9
$USERR5
 40
0.0
  9
$WORLDVIEW
 70
     1
  9
$SHADEDGE
 70
     3
  9
$SHADEDIF
 70
    70
  9
$TILEMODE
 70
     1
  9
$MAXACTVP
 70
    64
  9
$PINSBASE
 10
0.0
 20
0.0
 30
0.0
  9
$PLIMCHECK
 70
     0
  9
$PEXTMIN
 10
1.00000000000000E+20
 20
1.00000000000000E+20
 30
1.00000000000000E+20
  9
$PEXTMAX
 10
-1.00000000000000E+20
 20
-1.00000000000000E+20
 30
-1.00000000000000E+20
  9
$PLIMMIN
 10
0.0
 20
0.0
  9
$PLIMMAX
 10
12.0
 20
9.0
  9
$UNITMODE
 70
     0
  9
$VISRETAIN
 70
     1
  9
$PLINEGEN
 70
     0
  9
$PSLTSCALE
 70
     1
  9
$TREEDEPTH
 70
  3020
  9
$CMLSTYLE
  2
Standard
  9
$CMLJUST
 70
     0
  9
$CMLSCALE
 40
1.0
  9
$PROXYGRAPHICS
 70
     1
  9
$MEASUREMENT
 70
     1
  9
$CELWEIGHT
370
    -1
  9
$ENDCAPS
280
     0
  9
$JOINSTYLE
280
     0
  9
$LWDISPLAY
290
     0
  9
$INSUNITS
 70
     4
  9
$HYPERLINKBASE
  1

  9
$STYLESHEET
  1

  9
$XEDIT
290
     1
  9
$CEPSNTYPE
380
     0
  9
$PSTYLEMODE
290
     1
  9
$FINGERPRINTGUID
  2
{967E2379-34F9-4E9C-ABBD-E7F352D1781F}
  9
$VERSIONGUID
  2
{FAEB1C32-E019-11D5-929B-00C0DF256EC4}
  9
$EXTNAMES
290
     1
  9
$PSVPSCALE
 40
0.0
  9
$OLESTARTUP
290
     0
  0
ENDSEC
  0
SECTION
  2
CLASSES
  0
CLASS
  1
ACDBDICTIONARYWDFLT
  2
AcDbDictionaryWithDefault
  3
ObjectDBX Classes
 90
        0
280
     0
281
     0
  0
CLASS
  1
VISUALSTYLE
  2
AcDbVisualStyle
  3
ObjectDBX Classes
 90
     4095
280
     0
281
     0
  0
CLASS
  1
MATERIAL
  2
AcDbMaterial
  3
ObjectDBX Classes
 90
     1153
280
     0
281
     0
  0
CLASS
  1
DICTIONARYVAR
  2
AcDbDictionaryVar
  3
ObjectDBX Classes
 90
        0
280
     0
281
     0
  0
CLASS
  1
ACDBPLACEHOLDER
  2
AcDbPlaceHolder
  3
ObjectDBX Classes
 90
        0
280
     0
281
     0
  0
CLASS
  1
LAYOUT
  2
AcDbLayout
  3
ObjectDBX Classes
 90
        0
280
     0
281
     0
  0
ENDSEC
  0
SECTION
  2
TABLES
  0
TABLE
  2
VPORT
  5
8
330
0
100
AcDbSymbolTable
 70
     1
  0
VPORT
  5
29
330
8
100
AcDbSymbolTableRecord
100
AcDbViewportTableRecord
  2
*Active
 70
     0
 10
0.0
 20
0.0
 11
1.0
 21
1.0
 12
148.4999999999999
 22
105.0000000000001
 13
0.0
 23
0.0
 14
0.5
 24
0.5
 15
0.5
 25
0.5
 16
0.0
 26
0.0
 36
1.0
 17
0.0
 27
0.0
 37
0.0
 40
231.0000000000001
 41
1.60267857142857
 42
50.0
 43
0.0
 44
0.0
 50
0.0
 51
0.0
 71
     0
 72
   100
 73
     1
 74
     3
 75
     0
 76
     0
 77
     0
 78
     0
281
     0
 65
     1
110
0.0
120
0.0
130
0.0
111
1.0
121
0.0
131
0.0
112
0.0
122
1.0
132
0.0
 79
     0
146
0.0
  0
ENDTAB
  0
TABLE
  2
LTYPE
  5
5
330
0
100
AcDbSymbolTable
 70
     8
  0
LTYPE
  5
14
330
5
100
AcDbSymbolTableRecord
100
AcDbLinetypeTableRecord
  2
ByBlock
 70
     0
  3

 72
    65
 73
     0
 40
0.0
  0
LTYPE
  5
15
330
5
100
AcDbSymbolTableRecord
100
AcDbLinetypeTableRecord
  2
ByLayer
 70
     0
  3

 72
    65
 73
     0
 40
0.0
  0
LTYPE
  5
16
330
5
100
AcDbSymbolTableRecord
100
AcDbLinetypeTableRecord
  2
Continuous
 70
     0
  3
Solid line
 72
    65
 73
     0
 40
0.0
  0
LTYPE
  5
3F
330
5
100
AcDbSymbolTableRecord
100
AcDbLinetypeTableRecord
  2
DASHED
 70
     0
  3
Dashed
 72
    65
 73
     2
 40
15.0
 49
7.0
 74
     0
 49
-8.0
 74
     0
  0
LTYPE
  5
40
330
5
100
AcDbSymbolTableRecord
100
AcDbLinetypeTableRecord
  2
DOTTED
 70
     0
  3
Dotted
 72
    65
 73
     2
 40
1.0
 49
0.0
 74
     0
 49
-1.0
 74
     0
  0
LTYPE
  5
41
330
5
100
AcDbSymbolTableRecord
100
AcDbLinetypeTableRecord
  2
DOT_CENTER
 70
     0
  3
Dot_Center
 72
    65
 73
     4
 40
14.0
 49
12.0
 74
     0
 49
-1.0
 74
     0
 49
0.0
 74
     0
 49
-1.0
 74
     0
  0
LTYPE
  5
42
330
5
100
AcDbSymbolTableRecord
100
AcDbLinetypeTableRecord
  2
LONG_DASHED
 70
     0
  3
Long_Dashed
 72
    65
 73
     2
 40
15.0
 49
10.0
 74
     0
 49
-5.0
 74
     0
  0
LTYPE
  5
43
330
5
100
AcDbSymbolTableRecord
100
AcDbLinetypeTableRecord
  2
DASH_CENTER
 70
     0
  3
Dash_Center
 72
    65
 73
     4
 40
14.0
 49
11.0
 74
     0
 49
-1.0
 74
     0
 49
1.0
 74
     0
 49
-1.0
 74
     0
  0
LTYPE
  5
44
330
5
100
AcDbSymbolTableRecord
100
AcDbLinetypeTableRecord
  2
PHANTOM
 70
     0
  3
Phantom
 72
    65
 73
     6
 40
13.0
 49
10.0
 74
     0
 49
-1.0
 74
     0
 49
0.0
 74
     0
 49
-1.0
 74
     0
 49
0.0
 74
     0
 49
-1.0
 74
     0
  0
LTYPE
  5
45
330
5
100
AcDbSymbolTableRecord
100
AcDbLinetypeTableRecord
  2
CENTER_DASH_DASH
 70
     0
  3
Center_Dash_Dash
 72
    65
 73
     6
 40
14.0
 49
9.0
 74
     0
 49
-1.0
 74
     0
 49
1.0
 74
     0
 49
-1.0
 74
     0
 49
1.0
 74
     0
 49
-1.0
 74
     0
  0
ENDTAB
  0
TABLE
  2
LAYER
  5
2
330
0
100
AcDbSymbolTable
 70
     2
  0
LAYER
  5
10
330
2
100
AcDbSymbolTableRecord
100
AcDbLayerTableRecord
  2
0
 70
     0
 62
     7
  6
Continuous
370
    -3
390
F
  0
LAYER
  5
46
330
2
100
AcDbSymbolTableRecord
100
AcDbLayerTableRecord
  2
1
 70
     0
 62
     7
  6
Continuous
370
    -3
390
F
  0
ENDTAB
  0
TABLE
  2
STYLE
  5
3
330
0
100
AcDbSymbolTable
 70
     4
  0
STYLE
  5
11
330
3
100
AcDbSymbolTableRecord
100
AcDbTextStyleTableRecord
  2
Standard
 70
     0
 40
0.0
 41
1.0
 50
0.0
 71
     0
 42
0.2
  3
txt
  4

  0
STYLE
  5
267
330
3
100
AcDbSymbolTableRecord
100
AcDbTextStyleTableRecord
  2
CONVERTER_11
 70
     0
 40
0.0
 41
1.2
 50
0.0
 71
     0
 42
0.2
  3
ARIAL.TTF
  4

  0
STYLE
  5
269
330
3
100
AcDbSymbolTableRecord
100
AcDbTextStyleTableRecord
  2
CONVERTER_12
 70
     0
 40
0.0
 41
0.95
 50
0.0
 71
     0
 42
0.2
  3
simplex.shx
  4

  0
STYLE
  5
270
330
3
100
AcDbSymbolTableRecord
100
AcDbTextStyleTableRecord
  2
CONVERTER_13
 70
     0
 40
0.0
 41
1.38
 50
0.0
 71
     0
 42
0.2
  3
ARIAL.TTF
  4

  0
ENDTAB
  0
TABLE
  2
VIEW
  5
6
330
0
100
AcDbSymbolTable
 70
     0
  0
ENDTAB
  0
TABLE
  2
UCS
  5
7
330
0
100
AcDbSymbolTable
 70
     0
  0
ENDTAB
  0
TABLE
  2
APPID
  5
9
330
0
100
AcDbSymbolTable
 70
     1
  0
APPID
  5
12
330
9
100
AcDbSymbolTableRecord
100
AcDbRegAppTableRecord
  2
ACAD
 70
     0
  0
ENDTAB
  0
TABLE
  2
DIMSTYLE
  5
A
330
0
100
AcDbSymbolTable
 70
     6
100
AcDbDimStyleTable
  0
DIMSTYLE
105
27
330
A
100
AcDbSymbolTableRecord
100
AcDbDimStyleTableRecord
  2
Standard
 70
     0
178
     0
340
11
  0
DIMSTYLE
105
27D
102
{ACAD_REACTORS
330
27E
102
}
330
A
100
AcDbSymbolTableRecord
100
AcDbDimStyleTableRecord
  2
ME10_DIM_10
 70
     0
 41
3.0
 42
0.5
 44
1.0
 73
     0
 74
     0
 77
     1
 78
     8
140
3.0
147
2.0
172
     1
173
     1
174
     1
175
     1
176
     7
177
     7
271
     2
178
     7
271
     2
340
269
  0
DIMSTYLE
105
288
102
{ACAD_REACTORS
330
289
102
}
330
A
100
AcDbSymbolTableRecord
100
AcDbDimStyleTableRecord
  2
ME10_DIM_11
 70
     0
 41
3.0
 42
0.5
 44
1.0
 73
     0
 74
     0
 77
     1
 78
     8
140
3.0
147
2.0
172
     1
173
     1
174
     1
175
     1
176
     7
177
     7
271
     2
178
     7
271
     2
340
269
  0
DIMSTYLE
105
295
102
{ACAD_REACTORS
330
296
102
}
330
A
100
AcDbSymbolTableRecord
100
AcDbDimStyleTableRecord
  2
ME10_DIM_12
 70
     0
 41
3.0
 42
0.5
 44
1.0
 73
     0
 74
     0
 77
     1
 78
     8
140
3.0
147
2.0
172
     1
173
     1
174
     1
175
     1
176
     7
177
     7
271
     2
178
     7
271
     2
340
269
  0
DIMSTYLE
105
2A0
102
{ACAD_REACTORS
330
2A1
102
}
330
A
100
AcDbSymbolTableRecord
100
AcDbDimStyleTableRecord
  2
ME10_DIM_13
 70
     0
 41
3.0
 42
0.5
 44
1.0
 73
     0
 74
     0
 77
     1
 78
     8
140
3.0
147
2.0
172
     1
173
     1
174
     1
175
     1
176
     7
177
     7
271
     2
178
     7
271
     2
340
269
  0
DIMSTYLE
105
2AB
102
{ACAD_REACTORS
330
2AC
102
}
330
A
100
AcDbSymbolTableRecord
100
AcDbDimStyleTableRecord
  2
ME10_DIM_14
 70
     0
 41
3.0
 42
0.5
 44
1.0
 73
     0
 74
     0
 77
     1
 78
     8
140
3.0
147
2.0
172
     1
173
     1
174
     1
175
     1
176
     7
177
     7
271
     2
178
     7
271
     2
340
269
  0
ENDTAB
  0
TABLE
  2
BLOCK_RECORD
  5
1
330
0
100
AcDbSymbolTable
 70
     7
  0
BLOCK_RECORD
  5
1F
330
1
100
AcDbSymbolTableRecord
100
AcDbBlockTableRecord
  2
*Model_Space
340
22
  0
BLOCK_RECORD
  5
1B
330
1
100
AcDbSymbolTableRecord
100
AcDbBlockTableRecord
  2
*Paper_Space
340
1E
  0
BLOCK_RECORD
  5
23
330
1
100
AcDbSymbolTableRecord
100
AcDbBlockTableRecord
  2
*Paper_Space0
340
26
  0
BLOCK_RECORD
  5
47
330
1
100
AcDbSymbolTableRecord
100
AcDbBlockTableRecord
  2
_dummy_frame
340
0
102
{BLKREFS
331
4A
102
}
  0
BLOCK_RECORD
  5
274
330
1
100
AcDbSymbolTableRecord
100
AcDbBlockTableRecord
  2
*D2
340
0
  0
BLOCK_RECORD
  5
27F
330
1
100
AcDbSymbolTableRecord
100
AcDbBlockTableRecord
  2
*D3
340
0
  0
BLOCK_RECORD
  5
28A
330
1
100
AcDbSymbolTableRecord
100
AcDbBlockTableRecord
  2
*D4
340
0
  0
BLOCK_RECORD
  5
297
330
1
100
AcDbSymbolTableRecord
100
AcDbBlockTableRecord
  2
*D5
340
0
  0
BLOCK_RECORD
  5
2A2
330
1
100
AcDbSymbolTableRecord
100
AcDbBlockTableRecord
  2
*D6
340
0
  0
ENDTAB
  0
ENDSEC
  0
SECTION
  2
BLOCKS
  0
BLOCK
  5
20
330
1F
100
AcDbEntity
  8
0
100
AcDbBlockBegin
  2
*Model_Space
 70
     0
 10
0.0
 20
0.0
 30
0.0
  3
*Model_Space
  1

  0
ENDBLK
  5
21
330
1F
100
AcDbEntity
  8
0
100
AcDbBlockEnd
  0
BLOCK
  5
1C
330
1B
100
AcDbEntity
 67
     1
  8
0
100
AcDbBlockBegin
  2
*Paper_Space
 70
     0
 10
0.0
 20
0.0
 30
0.0
  3
*Paper_Space
  1

  0
ENDBLK
  5
1D
330
1B
100
AcDbEntity
 67
     1
  8
0
100
AcDbBlockEnd
  0
BLOCK
  5
24
330
23
100
AcDbEntity
  8
0
100
AcDbBlockBegin
  2
*Paper_Space0
 70
     0
 10
0.0
 20
0.0
 30
0.0
  3
*Paper_Space0
  1

  0
ENDBLK
  5
25
330
23
100
AcDbEntity
  8
0
100
AcDbBlockEnd
  0
BLOCK
  5
48
330
47
100
AcDbEntity
  8
0
100
AcDbBlockBegin
  2
_dummy_frame
 70
     0
 10
91.0277033482987
 20
5.00000000000001
 30
0.0
  3
_dummy_frame
  1

  0
POINT
  5
4B
330
47
100
AcDbEntity
  8
1
 62
     7
 60
     1
100
AcDbPoint
 10
91.0277033482987
 20
5.00000000000001
 30
0.0
  0
ENDBLK
  5
49
330
47
100
AcDbEntity
  8
0
100
AcDbBlockEnd
  0
BLOCK
  5
27B
330
274
100
AcDbEntity
  8
0
100
AcDbBlockBegin
  2
*D2
 70
     1
 10
0.0
 20
0.0
 30
0.0
  3
*D2
  1

  0
LINE
  5
275
330
274
100
AcDbEntity
  8
1
  6
Continuous
 62
     7
100
AcDbLine
 10
177.830059421251
 20
115.182354764336
 30
0.0
 11
177.830059421251
 21
88.38235476433601
 31
0.0
  0
LINE
  5
276
330
274
100
AcDbEntity
  8
1
  6
Continuous
 62
     7
100
AcDbLine
 10
195.2411783252626
 20
115.182354764336
 30
0.0
 11
176.830059421251
 21
115.182354764336
 31
0.0
  0
LINE
  5
277
330
274
100
AcDbEntity
  8
1
  6
Continuous
 62
     7
100
AcDbLine
 10
193.9411783252627
 20
88.38235476433601
 30
0.0
 11
176.830059421251
 21
88.38235476433601
 31
0.0
  0
SOLID
  5
278
330
274
100
AcDbEntity
  8
1
 62
     7
100
AcDbTrace
 10
178.2250169140132
 20
112.182354764336
 30
0.0
 11
177.4351019284888
 21
112.182354764336
 31
0.0
 12
177.830059421251
 22
115.182354764336
 32
0.0
 13
177.830059421251
 23
115.182354764336
 33
0.0
  0
SOLID
  5
279
330
274
100
AcDbEntity
  8
1
 62
     7
100
AcDbTrace
 10
177.4351019284888
 20
91.38235476433601
 30
0.0
 11
178.2250169140132
 21
91.38235476433601
 31
0.0
 12
177.830059421251
 22
88.38235476433601
 32
0.0
 13
177.830059421251
 23
88.38235476433601
 33
0.0
  0
MTEXT
  5
27A
330
274
100
AcDbEntity
  8
1
 62
     7
100
AcDbMText
 10
175.830059421251
 20
99.532354764336
 30
0.0
 40
3.0
 41
0.0
 71
     7
 72
     1
  1
27
  7
CONVERTER_12
 11
0.0
 21
1.0
 31
0.0
 73
     1
 44
0.60024009603842
  0
ENDBLK
  5
27C
330
274
100
AcDbEntity
  8
0
100
AcDbBlockEnd
  0
BLOCK
  5
286
330
27F
100
AcDbEntity
  8
0
100
AcDbBlockBegin
  2
*D3
 70
     1
 10
0.0
 20
0.0
 30
0.0
  3
*D3
  1

  0
LINE
  5
280
330
27F
100
AcDbEntity
  8
1
  6
Continuous
 62
     7
100
AcDbLine
 10
194.4411783252627
 20
73.12586068582999
 30
0.0
 11
226.4411783252627
 21
73.12586068582999
 31
0.0
  0
LINE
  5
281
330
27F
100
AcDbEntity
  8
1
  6
Continuous
 62
     7
100
AcDbLine
 10
226.4411783252627
 20
87.882354764336
 30
0.0
 11
226.4411783252627
 21
72.12586068582999
 31
0.0
  0
LINE
  5
282
330
27F
100
AcDbEntity
  8
1
  6
Continuous
 62
     7
100
AcDbLine
 10
194.4411783252627
 20
87.882354764336
 30
0.0
 11
194.4411783252627
 21
72.12586068582999
 31
0.0
  0
SOLID
  5
283
330
27F
100
AcDbEntity
  8
1
 62
     7
100
AcDbTrace
 10
197.4411783252627
 20
73.52081817859218
 30
0.0
 11
197.4411783252627
 21
72.7309031930678
 31
0.0
 12
194.4411783252627
 22
73.12586068582999
 32
0.0
 13
194.4411783252627
 23
73.12586068582999
 33
0.0
  0
SOLID
  5
284
330
27F
100
AcDbEntity
  8
1
 62
     7
100
AcDbTrace
 10
223.4411783252627
 20
72.7309031930678
 30
0.0
 11
223.4411783252627
 21
73.52081817859218
 31
0.0
 12
226.4411783252627
 22
73.12586068582999
 32
0.0
 13
226.4411783252627
 23
73.12586068582999
 33
0.0
  0
MTEXT
  5
285
330
27F
100
AcDbEntity
  8
1
 62
     7
100
AcDbMText
 10
208.1911783252627
 20
75.12586068582999
 30
0.0
 40
3.0
 41
0.0
 71
     7
 72
     1
  1
32
  7
CONVERTER_12
 11
0.9999999999970619
 21
2.424068405545306E-6
 31
0.0
 73
     1
 44
0.60024009603842
  0
ENDBLK
  5
287
330
27F
100
AcDbEntity
  8
0
100
AcDbBlockEnd
  0
BLOCK
  5
293
330
28A
100
AcDbEntity
  8
0
100
AcDbBlockBegin
  2
*D4
 70
     1
 10
0.0
 20
0.0
 30
0.0
  3
*D4
  1

  0
LINE
  5
28B
330
28A
100
AcDbEntity
  8
1
  6
Continuous
 62
     7
100
AcDbLine
 10
239.526935081202
 20
91.88235476433601
 30
0.0
 11
239.526935081202
 21
97.88235476433601
 31
0.0
  0
LINE
  5
28C
330
28A
100
AcDbEntity
  8
1
  6
Continuous
 62
     7
100
AcDbLine
 10
239.526935081202
 20
88.38235476433601
 30
0.0
 11
239.526935081202
 21
91.88235476433601
 31
0.0
  0
LINE
  5
28D
330
28A
100
AcDbEntity
  8
1
  6
Continuous
 62
     7
100
AcDbLine
 10
239.526935081202
 20
79.7423062427348
 30
0.0
 11
239.526935081202
 21
88.38235476433601
 31
0.0
  0
LINE
  5
28E
330
28A
100
AcDbEntity
  8
1
  6
Continuous
 62
     7
100
AcDbLine
 10
226.9411783252627
 20
91.88235476433601
 30
0.0
 11
240.526935081202
 21
91.88235476433601
 31
0.0
  0
LINE
  5
28F
330
28A
100
AcDbEntity
  8
1
  6
Continuous
 62
     7
100
AcDbLine
 10
226.9411783252627
 20
88.38235476433601
 30
0.0
 11
240.526935081202
 21
88.38235476433601
 31
0.0
  0
SOLID
  5
290
330
28A
100
AcDbEntity
  8
1
 62
     7
100
AcDbTrace
 10
239.9218925739642
 20
85.38235476433601
 30
0.0
 11
239.1319775884398
 21
85.38235476433601
 31
0.0
 12
239.526935081202
 22
88.38235476433601
 32
0.0
 13
239.526935081202
 23
88.38235476433601
 33
0.0
  0
SOLID
  5
291
330
28A
100
AcDbEntity
  8
1
 62
     7
100
AcDbTrace
 10
239.1319775884398
 20
94.88235476433601
 30
0.0
 11
239.9218925739642
 21
94.88235476433601
 31
0.0
 12
239.526935081202
 22
91.88235476433601
 32
0.0
 13
239.526935081202
 23
91.88235476433601
 33
0.0
  0
MTEXT
  5
292
330
28A
100
AcDbEntity
  8
1
 62
     7
100
AcDbMText
 10
237.226935081202
 20
79.7423062427348
 30
0.0
 40
3.0
 41
0.0
 71
     7
 72
     1
  1
3,5
  7
CONVERTER_12
 11
0.0
 21
1.0
 31
0.0
 73
     1
 44
0.60024009603842
  0
ENDBLK
  5
294
330
28A
100
AcDbEntity
  8
0
100
AcDbBlockEnd
  0
BLOCK
  5
29E
330
297
100
AcDbEntity
  8
0
100
AcDbBlockBegin
  2
*D5
 70
     1
 10
0.0
 20
0.0
 30
0.0
  3
*D5
  1

  0
LINE
  5
298
330
297
100
AcDbEntity
  8
1
  6
Continuous
 62
     7
100
AcDbLine
 10
195.7411783252626
 20
152.4702171543729
 30
0.0
 11
248.4710331078196
 21
152.4702171543729
 31
0.0
  0
LINE
  5
299
330
297
100
AcDbEntity
  8
1
  6
Continuous
 62
     7
100
AcDbLine
 10
195.7411783252626
 20
115.682354764336
 30
0.0
 11
195.7411783252626
 21
153.4702171543729
 31
0.0
  0
LINE
  5
29A
330
297
100
AcDbEntity
  8
1
  6
Continuous
 62
     7
100
AcDbLine
 10
248.4710331078196
 20
103.082354764336
 30
0.0
 11
248.4710331078196
 21
153.4702171543729
 31
0.0
  0
SOLID
  5
29B
330
297
100
AcDbEntity
  8
1
 62
     7
100
AcDbTrace
 10
198.7411783252626
 20
152.8651746471351
 30
0.0
 11
198.7411783252626
 21
152.0752596616107
 31
0.0
 12
195.7411783252626
 22
152.4702171543729
 32
0.0
 13
195.7411783252626
 23
152.4702171543729
 33
0.0
  0
SOLID
  5
29C
330
297
100
AcDbEntity
  8
1
 62
     7
100
AcDbTrace
 10
245.4710331078196
 20
152.0752596616107
 30
0.0
 11
245.4710331078196
 21
152.8651746471351
 31
0.0
 12
248.4710331078196
 22
152.4702171543729
 32
0.0
 13
248.4710331078196
 23
152.4702171543729
 33
0.0
  0
MTEXT
  5
29D
330
297
100
AcDbEntity
  8
1
 62
     7
100
AcDbMText
 10
219.8561057165411
 20
154.4702171543729
 30
0.0
 40
3.0
 41
0.0
 71
     7
 72
     1
  1
55
  7
CONVERTER_12
 11
0.9999999999970619
 21
2.424068405545306E-6
 31
0.0
 73
     1
 44
0.60024009603842
  0
ENDBLK
  5
29F
330
297
100
AcDbEntity
  8
0
100
AcDbBlockEnd
  0
BLOCK
  5
2A9
330
2A2
100
AcDbEntity
  8
0
100
AcDbBlockBegin
  2
*D6
 70
     1
 10
0.0
 20
0.0
 30
0.0
  3
*D6
  1

  0
LINE
  5
2A3
330
2A2
100
AcDbEntity
  8
1
  6
Continuous
 62
     7
100
AcDbLine
 10
64.5411611811053
 20
73.12586068583
 30
0.0
 11
147.5411611811053
 21
73.12586068583
 31
0.0
  0
LINE
  5
2A4
330
2A2
100
AcDbEntity
  8
1
  6
Continuous
 62
     7
100
AcDbLine
 10
64.5411611811053
 20
87.88235476433601
 30
0.0
 11
64.5411611811053
 21
72.12586068583
 31
0.0
  0
LINE
  5
2A5
330
2A2
100
AcDbEntity
  8
1
  6
Continuous
 62
     7
100
AcDbLine
 10
147.5411611811053
 20
87.88235476433601
 30
0.0
 11
147.5411611811053
 21
72.12586068583
 31
0.0
  0
SOLID
  5
2A6
330
2A2
100
AcDbEntity
  8
1
 62
     7
100
AcDbTrace
 10
67.5411611811053
 20
73.5208181785922
 30
0.0
 11
67.5411611811053
 21
72.73090319306782
 31
0.0
 12
64.5411611811053
 22
73.12586068583
 32
0.0
 13
64.5411611811053
 23
73.12586068583
 33
0.0
  0
SOLID
  5
2A7
330
2A2
100
AcDbEntity
  8
1
 62
     7
100
AcDbTrace
 10
144.5411611811053
 20
72.73090319306782
 30
0.0
 11
144.5411611811053
 21
73.5208181785922
 31
0.0
 12
147.5411611811053
 22
73.12586068583
 32
0.0
 13
147.5411611811053
 23
73.12586068583
 33
0.0
  0
MTEXT
  5
2A8
330
2A2
100
AcDbEntity
  8
1
 62
     7
100
AcDbMText
 10
103.6411611811053
 20
75.12586068583
 30
0.0
 40
3.0
 41
0.0
 71
     7
 72
     1
  1
83
  7
CONVERTER_12
 11
0.9999999999970619
 21
2.424068405545306E-6
 31
0.0
 73
     1
 44
0.60024009603842
  0
ENDBLK
  5
2AA
330
2A2
100
AcDbEntity
  8
0
100
AcDbBlockEnd
  0
ENDSEC
  0
SECTION
  2
ENTITIES
  0
INSERT
  5
4A
330
1F
100
AcDbEntity
  8
1
100
AcDbBlockReference
  2
_dummy_frame
 10
91.0277033482987
 20
5.00000000000001
 30
0.0
  0
LINE
  5
4C
330
1F
100
AcDbEntity
  8
0
  6
Continuous
 62
     7
100
AcDbLine
 10
200.5450141918992
 20
93.682354764336
 30
0.0
 11
220.337342458626
 21
93.682354764336
 31
0.0
  0
LINE
  5
4D
330
1F
100
AcDbEntity
  8
1
  6
DOT_CENTER
 62
     7
100
AcDbLine
 10
210.4411783252619
 20
110.1023547643359
 30
0.0
 11
210.4411783252619
 21
100.8623547643361
 31
0.0
  0
LINE
  5
4E
330
1F
100
AcDbEntity
  8
1
  6
DOT_CENTER
 62
     7
100
AcDbLine
 10
215.0611783252618
 20
105.482354764336
 30
0.0
 11
205.821178325262
 21
105.482354764336
 31
0.0
  0
LINE
  5
4F
330
1F
100
AcDbEntity
  8
0
  6
Continuous
 62
     7
100
AcDbLine
 10
207.2489474314925
 20
123.2823547643366
 30
0.0
 11
210.4411783252639
 21
123.2823547643366
 31
0.0
  0
LINE
  5
50
330
1F
100
AcDbEntity
  8
0
  6
Continuous
 62
     7
100
AcDbLine
 10
239.3033794033042
 20
123.4611083677842
 30
0.0
 11
239.402831592841
 21
123.4506555214574
 31
0.0
  0
LINE
  5
51
330
1F
100
AcDbEntity
  8
0
  6
Continuous
 62
     7
100
AcDbLine
 10
215.0105673376808
 20
100.5822849634873
 30
0.0
 11
226.4821775052848
 21
111.2797345070682
 31
0.0
  0
LINE
  5
52
330
1F
100
AcDbEntity
  8
0
  6
Continuous
 62
     7
100
AcDbLine
 10
232.4411783269624
 20
117.1436637710966
 30
0.0
 11
232.4411783252585
 21
116.8365926700004
 31
0.0
  0
LINE
  5
53
330
1F
100
AcDbEntity
  8
0
  6
Continuous
 62
     7
100
AcDbLine
 10
232.4411783252623
 20
117.2823547643318
 30
0.0
 11
232.4411783269624
 21
117.1436637710966
 31
0.0
  0
LINE
  5
54
330
1F
100
AcDbEntity
  8
0
  6
Continuous
 62
     7
100
AcDbLine
 10
232.4411783252585
 20
116.8365926700004
 30
0.0
 11
226.4821775052848
 21
111.2797345070682
 31
0.0
  0
LINE
  5
55
330
1F
100
AcDbEntity
  8
0
  6
Continuous
 62
     7
100
AcDbLine
 10
215.8911392915899
 20
110.1264402659492
 30
0.0
 11
219.2833666817053
 21
113.2897434828413
 31
0.0
  0
LINE
  5
56
330
1F
100
AcDbEntity
  8
0
  6
Continuous
 62
     7
100
AcDbLine
 10
222.397561597901
 20
111.0225470078199
 30
0.0
 11
217.7982632844534
 21
106.7336319448825
 31
0.0
  0
LINE
  5
57
330
1F
100
AcDbEntity
  8
0
  6
Continuous
 62
     7
100
AcDbLine
 10
205.8717893128434
 20
110.3824245651852
 30
0.0
 11
211.9411783252642
 21
116.0422213828947
 31
0.0
  0
LINE
  5
58
330
1F
100
AcDbEntity
  8
0
  6
Continuous
 62
     7
100
AcDbLine
 10
238.8387469217736
 20
121.5975692697612
 30
0.0
 11
238.9314653072303
 21
121.5601086104196
 31
0.0
  0
LINE
  5
59
330
1F
100
AcDbEntity
  8
0
  6
Continuous
 62
     7
100
AcDbLine
 10
232.8241224526988
 20
131.1823547643345
 30
0.0
 11
232.4631637728821
 21
131.1823547643345
 31
0.0
  0
LINE
  5
5A
330
1F
100
AcDbEntity
  8
0
  6
Continuous
 62
     7
100
AcDbLine
 10
233.4153900319845
 20
131.1142312455227
 30
0.0
 11
233.4014727218884
 21
131.0152044386485
 31
0.0
  0
LINE
  5
5B
330
1F
100
AcDbEntity
  8
0
  6
Continuous
 62
     7
100
AcDbLine
 10
237.3037869184756
 20
119.1469761619606
 30
0.0
 11
237.2343210814301
 21
119.2189101419941
 31
0.0
  0
LINE
  5
5C
330
1F
100
AcDbEntity
  8
0
  6
Continuous
 62
     7
100
AcDbLine
 10
236.4968965660807
 20
118.6001375031441
 30
0.0
 11
236.5556750913099
 21
118.5192358037066
 31
0.0
  0
LINE
  5
5D
330
1F
100
AcDbEntity
  8
0
  6
Continuous
 62
     7
100
AcDbLine
 10
237.8784525251489
 20
119.9342905845841
 30
0.0
 11
237.9572536005097
 21
119.8727244370516
 31
0.0
  0
LINE
  5
5E
330
1F
100
AcDbEntity
  8
0
  6
Continuous
 62
     7
100
AcDbLine
 10
237.6431921036055
 20
128.8662690088432
 30
0.0
 11
237.5688776210578
 21
128.7993559482073
 31
0.0
  0
LINE
  5
5F
330
1F
100
AcDbEntity
  8
0
  6
Continuous
 62
     7
100
AcDbLine
 10
232.9224979940968
 20
117.2991628175388
 30
0.0
 11
232.9294736414714
 21
117.1994064125129
 31
0.0
  0
LINE
  5
60
330
1F
100
AcDbEntity
  8
0
  6
Continuous
 62
     7
100
AcDbLine
 10
236.9406915930694
 20
129.5446658661641
 30
0.0
 11
236.876412832101
 21
129.4680614218526
 31
0.0
  0
LINE
  5
61
330
1F
100
AcDbEntity
  8
0
  6
Continuous
 62
     7
100
AcDbLine
 10
236.1506131748974
 20
130.1186914374279
 30
0.0
 11
236.0976212484729
 21
130.0338866278107
 31
0.0
  0
LINE
  5
62
330
1F
100
AcDbEntity
  8
0
  6
Continuous
 62
     7
100
AcDbLine
 10
235.247661162487
 20
130.4858184220656
 30
0.0
 11
235.2883348267946
 21
130.5771729678297
 31
0.0
  0
LINE
  5
63
330
1F
100
AcDbEntity
  8
0
  6
Continuous
 62
     7
100
AcDbLine
 10
233.8965601609868
 20
117.3353215591949
 30
0.0
 11
233.875768991905
 21
117.4331363192683
 31
0.0
  0
LINE
  5
64
330
1F
100
AcDbEntity
  8
0
  6
Continuous
 62
     7
100
AcDbLine
 10
234.8011173142098
 20
117.6984756809087
 30
0.0
 11
234.8353193285422
 21
117.6045064188301
 31
0.0
  0
LINE
  5
65
330
1F
100
AcDbEntity
  8
0
  6
Continuous
 62
     7
100
AcDbLine
 10
235.7274792647638
 20
118.0017216143189
 30
0.0
 11
235.680532108485
 21
118.0900163736048
 31
0.0
  0
LINE
  5
66
330
1F
100
AcDbEntity
  8
0
  6
Continuous
 62
     7
100
AcDbLine
 10
234.370639815984
 20
130.9111866359041
 30
0.0
 11
234.3430760804012
 21
130.8150604663063
 31
0.0
  0
LINE
  5
67
330
1F
100
AcDbEntity
  8
0
  6
Continuous
 62
     7
100
AcDbLine
 10
239.2363518210474
 20
125.3805271902328
 30
0.0
 11
239.3348325963488
 21
125.3978920079995
 31
0.0
  0
LINE
  5
68
330
1F
100
AcDbEntity
  8
0
  6
Continuous
 62
     7
100
AcDbLine
 10
239.0985739393295
 20
126.3454737249556
 30
0.0
 11
239.0034682877001
 21
126.3145720255182
 31
0.0
  0
LINE
  5
69
330
1F
100
AcDbEntity
  8
0
  6
Continuous
 62
     7
100
AcDbLine
 10
239.436914114397
 20
124.4266512412485
 30
0.0
 11
239.3369750316951
 21
124.4231612915783
 31
0.0
  0
LINE
  5
6A
330
1F
100
AcDbEntity
  8
0
  6
Continuous
 62
     7
100
AcDbLine
 10
226.1411783252558
 20
131.1823547643326
 30
0.0
 11
207.9829207557697
 21
131.1823547643345
 31
0.0
  0
LINE
  5
6B
330
1F
100
AcDbEntity
  8
0
  6
Continuous
 62
     7
100
AcDbLine
 10
238.7327366493577
 20
127.2509527918547
 30
0.0
 11
238.6428572447277
 21
127.2071156771758
 31
0.0
  0
LINE
  5
6C
330
1F
100
AcDbEntity
  8
0
  6
Continuous
 62
     7
100
AcDbLine
 10
238.1615375758933
 20
128.0407857982793
 30
0.0
 11
238.2444413331488
 21
128.0967050886263
 31
0.0
  0
LINE
  5
6D
330
1F
100
AcDbEntity
  8
0
  6
Continuous
 62
     7
100
AcDbLine
 10
232.4631637728821
 20
131.1823547643345
 30
0.0
 11
226.1411783252558
 21
131.1823547643326
 31
0.0
  0
LINE
  5
6E
330
1F
100
AcDbEntity
  8
0
  6
Continuous
 62
     7
100
AcDbLine
 10
207.9411783252398
 20
128.6823547643345
 30
0.0
 11
215.4411783252651
 21
128.6823547643354
 31
0.0
  0
LINE
  5
6F
330
1F
100
AcDbEntity
  8
0
  6
Continuous
 62
     7
100
AcDbLine
 10
239.2332484091948
 20
122.4889014951333
 30
0.0
 11
239.1362188365674
 21
122.5130936846933
 31
0.0
  0
LINE
  5
70
330
1F
100
AcDbEntity
  8
0
  6
Continuous
 62
     7
100
AcDbLine
 10
214.4411783252642
 20
125.5823547643331
 30
0.0
 11
207.9411783252396
 21
125.5823547643338
 31
0.0
  0
LINE
  5
71
330
1F
100
AcDbEntity
  8
0
  6
Continuous
 62
     7
100
AcDbLine
 10
238.503356151754
 20
120.6823547643311
 30
0.0
 11
238.4167536113754
 21
120.7323547643311
 31
0.0
  0
LINE
  5
72
330
1F
100
AcDbEntity
  8
0
  6
Continuous
 62
     7
100
AcDbLine
 10
211.9411783252639
 20
121.7823547643366
 30
0.0
 11
211.9411783252642
 21
116.0422213828947
 31
0.0
  0
LINE
  5
73
330
1F
100
AcDbEntity
  8
0
  6
Continuous
 62
     7
100
AcDbLine
 10
195.5378423057378
 20
91.88235476433601
 30
0.0
 11
194.4411783252627
 21
91.88235476433601
 31
0.0
  0
LINE
  5
74
330
1F
100
AcDbEntity
  8
0
  6
Continuous
 62
     7
100
AcDbLine
 10
200.4411783252627
 20
88.38235476433601
 30
0.0
 11
220.4411783252627
 21
88.38235476433601
 31
0.0
  0
LINE
  5
75
330
1F
100
AcDbEntity
  8
0
  6
Continuous
 62
     7
100
AcDbLine
 10
225.3244806343562
 20
94.17799149650801
 30
0.0
 11
225.1857859278048
 21
110.0708298035262
 31
0.0
  0
LINE
  5
76
330
1F
100
AcDbEntity
  8
0
  6
Continuous
 62
     7
100
AcDbLine
 10
226.4411783252627
 20
88.38235476433601
 30
0.0
 11
220.4411783252627
 21
88.38235476433601
 31
0.0
  0
LINE
  5
77
330
1F
100
AcDbEntity
  8
0
  6
Continuous
 62
     7
100
AcDbLine
 10
225.337456695233
 20
92.69108129983442
 30
0.0
 11
225.3445143447873
 21
91.88235476433601
 31
0.0
  0
LINE
  5
78
330
1F
100
AcDbEntity
  8
0
  6
Continuous
 62
     7
100
AcDbLine
 10
225.337456695233
 20
92.69108129983442
 30
0.0
 11
225.3244806343562
 21
94.17799149650801
 31
0.0
  0
LINE
  5
79
330
1F
100
AcDbEntity
  8
0
  6
Continuous
 62
     7
100
AcDbLine
 10
224.3374947721689
 20
93.682354764336
 30
0.0
 11
220.337342458626
 21
93.682354764336
 31
0.0
  0
LINE
  5
7A
330
1F
100
AcDbEntity
  8
0
  6
Continuous
 62
     7
100
AcDbLine
 10
226.4411783252627
 20
91.88235476433601
 30
0.0
 11
225.3445143447873
 21
91.88235476433601
 31
0.0
  0
LINE
  5
7B
330
1F
100
AcDbEntity
  8
0
  6
Continuous
 62
     7
100
AcDbLine
 10
225.3445143447873
 20
91.88235476433601
 30
0.0
 11
220.4411783252627
 21
91.88235476433601
 31
0.0
  0
LINE
  5
7C
330
1F
100
AcDbEntity
  8
0
  6
Continuous
 62
     7
100
AcDbLine
 10
226.4411783252627
 20
91.88235476433601
 30
0.0
 11
226.4411783252627
 21
88.38235476433601
 31
0.0
  0
LINE
  5
7D
330
1F
100
AcDbEntity
  8
0
  6
Continuous
 62
     7
100
AcDbLine
 10
202.2409308251795
 20
115.182354764336
 30
0.0
 11
211.0190842687269
 21
115.182354764336
 31
0.0
  0
LINE
  5
7E
330
1F
100
AcDbEntity
  8
0
  6
Continuous
 62
     7
100
AcDbLine
 10
195.7411783252626
 20
115.182354764336
 30
0.0
 11
202.2409308251795
 21
115.182354764336
 31
0.0
  0
LINE
  5
7F
330
1F
100
AcDbEntity
  8
0
  6
Continuous
 62
     7
100
AcDbLine
 10
195.7411783252626
 20
115.182354764336
 30
0.0
 11
195.5578760161689
 21
94.17799149650801
 31
0.0
  0
LINE
  5
80
330
1F
100
AcDbEntity
  8
0
  6
Continuous
 62
     7
100
AcDbLine
 10
200.4411783252627
 20
88.38235476433601
 30
0.0
 11
194.4411783252627
 21
88.38235476433601
 31
0.0
  0
LINE
  5
81
330
1F
100
AcDbEntity
  8
0
  6
Continuous
 62
     7
100
AcDbLine
 10
195.5448999552921
 20
92.69108129983442
 30
0.0
 11
195.5378423057378
 21
91.88235476433601
 31
0.0
  0
LINE
  5
82
330
1F
100
AcDbEntity
  8
0
  6
Continuous
 62
     7
100
AcDbLine
 10
195.5448999552921
 20
92.69108129983442
 30
0.0
 11
195.5578760161689
 21
94.17799149650801
 31
0.0
  0
LINE
  5
83
330
1F
100
AcDbEntity
  8
0
  6
Continuous
 62
     7
100
AcDbLine
 10
200.5450141918992
 20
93.682354764336
 30
0.0
 11
196.5448618783562
 21
93.682354764336
 31
0.0
  0
LINE
  5
84
330
1F
100
AcDbEntity
  8
0
  6
Continuous
 62
     7
100
AcDbLine
 10
200.4411783252627
 20
91.88235476433601
 30
0.0
 11
220.4411783252627
 21
91.88235476433601
 31
0.0
  0
LINE
  5
85
330
1F
100
AcDbEntity
  8
0
  6
Continuous
 62
     7
100
AcDbLine
 10
200.4411783252627
 20
91.88235476433601
 30
0.0
 11
195.5378423057378
 21
91.88235476433601
 31
0.0
  0
LINE
  5
86
330
1F
100
AcDbEntity
  8
0
  6
Continuous
 62
     7
100
AcDbLine
 10
194.4411783252627
 20
91.88235476433601
 30
0.0
 11
194.4411783252627
 21
88.38235476433601
 31
0.0
  0
LINE
  5
87
330
1F
100
AcDbEntity
  8
0
  6
Continuous
 62
     7
100
AcDbLine
 10
239.6062418347244
 20
126.6823547643311
 30
0.0
 11
238.8723524015888
 21
126.6823547643313
 31
0.0
  0
LINE
  5
88
330
1F
100
AcDbEntity
  8
0
  6
Continuous
 62
     7
100
AcDbLine
 10
239.6062418347244
 20
126.6823547643311
 30
0.0
 11
239.9411783252633
 21
126.6823547643313
 31
0.0
  0
LINE
  5
89
330
1F
100
AcDbEntity
  8
0
  6
Continuous
 62
     7
100
AcDbLine
 10
239.6062418347244
 20
129.1823547643311
 30
0.0
 11
237.3401578108303
 21
129.1823547643313
 31
0.0
  0
LINE
  5
8A
330
1F
100
AcDbEntity
  8
0
  6
Continuous
 62
     7
100
AcDbLine
 10
239.6062418347244
 20
129.1823547643311
 30
0.0
 11
239.9411783252633
 21
129.1823547643313
 31
0.0
  0
LINE
  5
8B
330
1F
100
AcDbEntity
  8
0
  6
Continuous
 62
     7
100
AcDbLine
 10
240.4411783252633
 20
127.1823547643313
 30
0.0
 11
240.4411783252633
 21
128.682354764331
 31
0.0
  0
LINE
  5
8C
330
1F
100
AcDbEntity
  8
1
  6
Continuous
 62
     7
100
AcDbLine
 10
248.4710331078196
 20
105.482354764336
 30
0.0
 11
248.4710331078196
 21
102.582354764336
 31
0.0
  0
LINE
  5
8D
330
1F
100
AcDbEntity
  8
0
  6
Continuous
 62
     7
100
AcDbLine
 10
96.46613384471021
 20
129.182354764333
 30
0.0
 11
97.71613384471021
 21
129.182354764333
 31
0.0
  0
LINE
  5
8E
330
1F
100
AcDbEntity
  8
0
  6
Continuous
 62
     7
100
AcDbLine
 10
132.1272743117954
 20
119.2189101419965
 30
0.0
 11
79.95504805041543
 21
119.2189101419965
 31
0.0
  0
LINE
  5
8F
330
1F
100
AcDbEntity
  8
0
  6
Continuous
 62
     7
100
AcDbLine
 10
132.0069559526447
 20
119.1469761619608
 30
0.0
 11
80.0753664095692
 21
119.1469761619627
 31
0.0
  0
LINE
  5
90
330
1F
100
AcDbEntity
  8
0
  6
Continuous
 62
     7
100
AcDbLine
 10
134.8185157571754
 20
118.0900163736068
 30
0.0
 11
134.7372008972299
 21
118.0017216143209
 31
0.0
  0
LINE
  5
91
330
1F
100
AcDbEntity
  8
0
  6
Continuous
 62
     7
100
AcDbLine
 10
134.8185157571754
 20
118.0900163736068
 30
0.0
 11
77.26380660503543
 21
118.0900163736067
 31
0.0
  0
LINE
  5
92
330
1F
100
AcDbEntity
  8
0
  6
Continuous
 62
     7
100
AcDbLine
 10
134.7372008972299
 20
118.0017216143209
 30
0.0
 11
77.34512146498082
 21
118.0017216143209
 31
0.0
  0
LINE
  5
93
330
1F
100
AcDbEntity
  8
0
  6
Continuous
 62
     7
100
AcDbLine
 10
140.3400741084626
 20
117.143663784371
 30
0.0
 11
140.3400740961252
 21
117.2823547643338
 31
0.0
  0
LINE
  5
94
330
1F
100
AcDbEntity
  8
0
  6
Continuous
 62
     7
100
AcDbLine
 10
72.4988335655749
 20
117.1994064125149
 30
0.0
 11
139.5834887966358
 21
117.1994064125149
 31
0.0
  0
LINE
  5
95
330
1F
100
AcDbEntity
  8
0
  6
Continuous
 62
     7
100
AcDbLine
 10
139.593535234835
 20
117.2823547643338
 30
0.0
 11
140.3400740961252
 21
117.2823547643338
 31
0.0
  0
LINE
  5
96
330
1F
100
AcDbEntity
  8
0
  6
Continuous
 62
     7
100
AcDbLine
 10
75.79985512696771
 20
117.6045064188319
 30
0.0
 11
136.282467235243
 21
117.6045064188318
 31
0.0
  0
LINE
  5
97
330
1F
100
AcDbEntity
  8
0
  6
Continuous
 62
     7
100
AcDbLine
 10
137.9444571707185
 20
117.4331363192703
 30
0.0
 11
137.9084458095202
 21
117.3353215591969
 31
0.0
  0
LINE
  5
98
330
1F
100
AcDbEntity
  8
0
  6
Continuous
 62
     7
100
AcDbLine
 10
74.17387655269061
 20
117.3353215591969
 30
0.0
 11
137.9084458095202
 21
117.3353215591969
 31
0.0
  0
LINE
  5
99
330
1F
100
AcDbEntity
  8
0
  6
Continuous
 62
     7
100
AcDbLine
 10
137.9444571707185
 20
117.4331363192703
 30
0.0
 11
74.13786519149221
 21
117.4331363192703
 31
0.0
  0
LINE
  5
9A
330
1F
100
AcDbEntity
  8
0
  6
Continuous
 62
     7
100
AcDbLine
 10
74.17387655269061
 20
117.3353215591969
 30
0.0
 11
74.13786519149221
 21
117.4331363192703
 31
0.0
  0
LINE
  5
9B
330
1F
100
AcDbEntity
  8
0
  6
Continuous
 62
     7
100
AcDbLine
 10
139.9578315533894
 20
116.8365926700055
 30
0.0
 11
72.1244908088209
 21
116.8365926700055
 31
0.0
  0
LINE
  5
9C
330
1F
100
AcDbEntity
  8
0
  6
Continuous
 62
     7
100
AcDbLine
 10
77.34512146498082
 20
118.0017216143209
 30
0.0
 11
77.26380660503543
 21
118.0900163736067
 31
0.0
  0
LINE
  5
9D
330
1F
100
AcDbEntity
  8
0
  6
Continuous
 62
     7
100
AcDbLine
 10
78.77959871517504
 20
118.5192358037086
 30
0.0
 11
133.3027236470358
 21
118.5192358037086
 31
0.0
  0
LINE
  5
9E
330
1F
100
AcDbEntity
  8
0
  6
Continuous
 62
     7
100
AcDbLine
 10
75.7406155004224
 20
117.6984756809106
 30
0.0
 11
75.79985512696771
 21
117.6045064188319
 31
0.0
  0
LINE
  5
9F
330
1F
100
AcDbEntity
  8
0
  6
Continuous
 62
     7
100
AcDbLine
 10
78.67779132308402
 20
118.600137503146
 30
0.0
 11
78.77959871517504
 21
118.5192358037086
 31
0.0
  0
LINE
  5
A0
330
1F
100
AcDbEntity
  8
0
  6
Continuous
 62
     7
100
AcDbLine
 10
80.0753664095692
 20
119.1469761619627
 30
0.0
 11
79.95504805041543
 21
119.2189101419965
 31
0.0
  0
LINE
  5
A1
330
1F
100
AcDbEntity
  8
0
  6
Continuous
 62
     7
100
AcDbLine
 10
86.73337417185752
 20
131.1142312455247
 30
0.0
 11
73.34046544217142
 21
131.1142312455247
 31
0.0
  0
LINE
  5
A2
330
1F
100
AcDbEntity
  8
0
  6
Continuous
 62
     7
100
AcDbLine
 10
86.73337417185752
 20
131.1142312455247
 30
0.0
 11
87.291234651938
 21
130.9111866359019
 31
0.0
  0
LINE
  5
A3
330
1F
100
AcDbEntity
  8
0
  6
Continuous
 62
     7
100
AcDbLine
 10
86.54620634219589
 20
131.1823547643339
 30
0.0
 11
73.31635995398057
 21
131.1823547643346
 31
0.0
  0
LINE
  5
A4
330
1F
100
AcDbEntity
  8
0
  6
Continuous
 62
     7
100
AcDbLine
 10
86.54620634219589
 20
131.1823547643339
 30
0.0
 11
86.73337417185752
 21
131.1142312455247
 31
0.0
  0
LINE
  5
A5
330
1F
100
AcDbEntity
  8
0
  6
Continuous
 62
     7
100
AcDbLine
 10
74.9472648115023
 20
130.8150604663078
 30
0.0
 11
87.55533913231574
 21
130.8150604663078
 31
0.0
  0
LINE
  5
A6
330
1F
100
AcDbEntity
  8
0
  6
Continuous
 62
     7
100
AcDbLine
 10
74.9472648115023
 20
130.8150604663078
 30
0.0
 11
74.99500660197623
 21
130.9111866359019
 31
0.0
  0
LINE
  5
A7
330
1F
100
AcDbEntity
  8
0
  6
Continuous
 62
     7
100
AcDbLine
 10
79.44646685797323
 20
129.544665866166
 30
0.0
 11
79.33513277812801
 21
129.4680614218542
 31
0.0
  0
LINE
  5
A8
330
1F
100
AcDbEntity
  8
0
  6
Continuous
 62
     7
100
AcDbLine
 10
79.44646685797323
 20
129.544665866166
 30
0.0
 11
91.0457196100017
 21
129.544665866166
 31
0.0
  0
LINE
  5
A9
330
1F
100
AcDbEntity
  8
0
  6
Continuous
 62
     7
100
AcDbLine
 10
80.5345169750538
 20
128.7993559482093
 30
0.0
 11
91.96507948626049
 21
128.7993559481956
 31
0.0
  0
LINE
  5
AA
330
1F
100
AcDbEntity
  8
0
  6
Continuous
 62
     7
100
AcDbLine
 10
93.1074261862089
 20
128.0967050886284
 30
0.0
 11
81.70462764814573
 21
128.0967050886284
 31
0.0
  0
LINE
  5
AB
330
1F
100
AcDbEntity
  8
0
  6
Continuous
 62
     7
100
AcDbLine
 10
78.07801089573331
 20
130.1186914374284
 30
0.0
 11
89.46859731476951
 21
130.1186914374284
 31
0.0
  0
LINE
  5
AC
330
1F
100
AcDbEntity
  8
0
  6
Continuous
 62
     7
100
AcDbLine
 10
89.70159661424964
 20
130.0338866278128
 30
0.0
 11
77.98622618677723
 21
130.0338866278128
 31
0.0
  0
LINE
  5
AD
330
1F
100
AcDbEntity
  8
0
  6
Continuous
 62
     7
100
AcDbLine
 10
80.5345169750538
 20
128.7993559482093
 30
0.0
 11
80.6632334345648
 21
128.8662690088452
 31
0.0
  0
LINE
  5
AE
330
1F
100
AcDbEntity
  8
0
  6
Continuous
 62
     7
100
AcDbLine
 10
81.70462764814573
 20
128.0967050886284
 30
0.0
 11
81.5610341284409
 21
128.0407857982812
 31
0.0
  0
LINE
  5
AF
330
1F
100
AcDbEntity
  8
0
  6
Continuous
 62
     7
100
AcDbLine
 10
80.6632334345648
 20
128.8662690088452
 30
0.0
 11
92.13613832128823
 21
128.8662690089429
 31
0.0
  0
LINE
  5
B0
330
1F
100
AcDbEntity
  8
0
  6
Continuous
 62
     7
100
AcDbLine
 10
77.98622618677723
 20
130.0338866278128
 30
0.0
 11
78.07801089573331
 21
130.1186914374284
 31
0.0
  0
LINE
  5
B1
330
1F
100
AcDbEntity
  8
0
  6
Continuous
 62
     7
100
AcDbLine
 10
76.5845009865543
 20
130.5771729678318
 30
0.0
 11
76.51405213344361
 21
130.4858184220675
 31
0.0
  0
LINE
  5
B2
330
1F
100
AcDbEntity
  8
0
  6
Continuous
 62
     7
100
AcDbLine
 10
87.291234651938
 20
130.9111866359019
 30
0.0
 11
74.99500660197623
 21
130.9111866359019
 31
0.0
  0
LINE
  5
B3
330
1F
100
AcDbEntity
  8
0
  6
Continuous
 62
     7
100
AcDbLine
 10
76.5845009865543
 20
130.5771729678318
 30
0.0
 11
88.2089296627496
 21
130.5771729678318
 31
0.0
  0
LINE
  5
B4
330
1F
100
AcDbEntity
  8
0
  6
Continuous
 62
     7
100
AcDbLine
 10
96.46613384471021
 20
129.182354764333
 30
0.0
 11
92.04116118110522
 21
129.1823547643329
 31
0.0
  0
LINE
  5
B5
330
1F
100
AcDbEntity
  8
0
  6
Continuous
 62
     7
100
AcDbLine
 10
87.55533913231574
 20
130.8150604663078
 30
0.0
 11
87.291234651938
 21
130.9111866359019
 31
0.0
  0
LINE
  5
B6
330
1F
100
AcDbEntity
  8
0
  6
Continuous
 62
     7
100
AcDbLine
 10
87.55533913231574
 20
130.8150604663078
 30
0.0
 11
88.2089296627496
 21
130.5771729678318
 31
0.0
  0
LINE
  5
B7
330
1F
100
AcDbEntity
  8
0
  6
Continuous
 62
     7
100
AcDbLine
 10
89.70159661424964
 20
130.0338866278128
 30
0.0
 11
89.46859731476951
 21
130.1186914374284
 31
0.0
  0
LINE
  5
B8
330
1F
100
AcDbEntity
  8
0
  6
Continuous
 62
     7
100
AcDbLine
 10
88.2089296627496
 20
130.5771729678318
 30
0.0
 11
89.46859731476951
 21
130.1186914374284
 31
0.0
  0
LINE
  5
B9
330
1F
100
AcDbEntity
  8
0
  6
Continuous
 62
     7
100
AcDbLine
 10
91.0457196100017
 20
129.544665866166
 30
0.0
 11
92.04116118110522
 21
129.1823547643329
 31
0.0
  0
LINE
  5
BA
330
1F
100
AcDbEntity
  8
0
  6
Continuous
 62
     7
100
AcDbLine
 10
92.04116118110522
 20
129.1823547643329
 30
0.0
 11
92.18623238082
 21
129.1295531657879
 31
0.0
  0
LINE
  5
BB
330
1F
100
AcDbEntity
  8
0
  6
Continuous
 62
     7
100
AcDbLine
 10
89.70159661424964
 20
130.0338866278128
 30
0.0
 11
91.0457196100017
 21
129.544665866166
 31
0.0
  0
LINE
  5
BC
330
1F
100
AcDbEntity
  8
0
  6
Continuous
 62
     7
100
AcDbLine
 10
139.5834887966358
 20
117.1994064125149
 30
0.0
 11
139.595570972304
 21
117.299162817541
 31
0.0
  0
LINE
  5
BD
330
1F
100
AcDbEntity
  8
0
  6
Continuous
 62
     7
100
AcDbLine
 10
130.3776947140652
 20
128.0967050886284
 30
0.0
 11
118.9748961760012
 21
128.0967050886283
 31
0.0
  0
LINE
  5
BE
330
1F
100
AcDbEntity
  8
0
  6
Continuous
 62
     7
100
AcDbLine
 10
118.2848195746026
 20
127.2071156771779
 30
0.0
 11
129.6876181126665
 21
127.2071156771779
 31
0.0
  0
LINE
  5
BF
330
1F
100
AcDbEntity
  8
0
  6
Continuous
 62
     7
100
AcDbLine
 10
118.1291438792295
 20
127.2509527918567
 30
0.0
 11
129.5319424172935
 21
127.2509527918567
 31
0.0
  0
LINE
  5
C0
330
1F
100
AcDbEntity
  8
0
  6
Continuous
 62
     7
100
AcDbLine
 10
115.6161885174997
 20
126.682354764333
 30
0.0
 11
116.887322302828
 21
126.682354764333
 31
0.0
  0
LINE
  5
C1
330
1F
100
AcDbEntity
  8
0
  6
Continuous
 62
     7
100
AcDbLine
 10
132.1272743117954
 20
119.2189101419965
 30
0.0
 11
132.0069559526447
 21
119.1469761619608
 31
0.0
  0
LINE
  5
C2
330
1F
100
AcDbEntity
  8
0
  6
Continuous
 62
     7
100
AcDbLine
 10
115.6161885174997
 20
126.682354764333
 30
0.0
 11
114.3661885174997
 21
126.6823547643332
 31
0.0
  0
LINE
  5
C3
330
1F
100
AcDbEntity
  8
0
  6
Continuous
 62
     7
100
AcDbLine
 10
129.5319424172935
 20
127.2509527918567
 30
0.0
 11
129.6876181126665
 21
127.2071156771779
 31
0.0
  0
LINE
  5
C4
330
1F
100
AcDbEntity
  8
0
  6
Continuous
 62
     7
100
AcDbLine
 10
113.541161181105
 20
126.3454737249579
 30
0.0
 11
128.8982936437589
 21
126.3454737249576
 31
0.0
  0
LINE
  5
C5
330
1F
100
AcDbEntity
  8
0
  6
Continuous
 62
     7
100
AcDbLine
 10
113.5411611811052
 20
126.682354764333
 30
0.0
 11
113.541161181105
 21
126.3454737249579
 31
0.0
  0
LINE
  5
C6
330
1F
100
AcDbEntity
  8
0
  6
Continuous
 62
     7
100
AcDbLine
 10
114.3661885174997
 20
126.6823547643332
 30
0.0
 11
113.5411611811052
 21
126.682354764333
 31
0.0
  0
LINE
  5
C7
330
1F
100
AcDbEntity
  8
0
  6
Continuous
 62
     7
100
AcDbLine
 10
98.54116118110522
 20
126.682354764333
 30
0.0
 11
97.7161338447105
 21
126.6823547643332
 31
0.0
  0
LINE
  5
C8
330
1F
100
AcDbEntity
  8
0
  6
Continuous
 62
     7
100
AcDbLine
 10
113.5411611811052
 20
126.682354764333
 30
0.0
 11
98.54116118110522
 21
126.682354764333
 31
0.0
  0
LINE
  5
C9
330
1F
100
AcDbEntity
  8
0
  6
Continuous
 62
     7
100
AcDbLine
 10
96.4661338447105
 20
126.682354764333
 30
0.0
 11
97.7161338447105
 21
126.6823547643332
 31
0.0
  0
LINE
  5
CA
330
1F
100
AcDbEntity
  8
0
  6
Continuous
 62
     7
100
AcDbLine
 10
98.54116118110522
 20
126.682354764333
 30
0.0
 11
98.541161181105
 21
126.3454737249579
 31
0.0
  0
LINE
  5
CB
330
1F
100
AcDbEntity
  8
0
  6
Continuous
 62
     7
100
AcDbLine
 10
96.4661338447105
 20
126.682354764333
 30
0.0
 11
95.19500005938204
 21
126.682354764333
 31
0.0
  0
LINE
  5
CC
330
1F
100
AcDbEntity
  8
0
  6
Continuous
 62
     7
100
AcDbLine
 10
82.3947042495443
 20
127.2071156771779
 30
0.0
 11
93.79750278760764
 21
127.2071156771779
 31
0.0
  0
LINE
  5
CD
330
1F
100
AcDbEntity
  8
0
  6
Continuous
 62
     7
100
AcDbLine
 10
82.5503799449175
 20
127.2509527918567
 30
0.0
 11
93.95317848298083
 21
127.2509527918567
 31
0.0
  0
LINE
  5
CE
330
1F
100
AcDbEntity
  8
0
  6
Continuous
 62
     7
100
AcDbLine
 10
93.95317848298083
 20
127.2509527918567
 30
0.0
 11
93.79750278760764
 21
127.2071156771779
 31
0.0
  0
LINE
  5
CF
330
1F
100
AcDbEntity
  8
0
  6
Continuous
 62
     7
100
AcDbLine
 10
82.3947042495443
 20
127.2071156771779
 30
0.0
 11
82.5503799449175
 21
127.2509527918567
 31
0.0
  0
LINE
  5
D0
330
1F
100
AcDbEntity
  8
0
  6
Continuous
 62
     7
100
AcDbLine
 10
118.1291438792295
 20
127.2509527918567
 30
0.0
 11
118.2848195746026
 21
127.2071156771779
 31
0.0
  0
LINE
  5
D1
330
1F
100
AcDbEntity
  8
0
  6
Continuous
 62
     7
100
AcDbLine
 10
73.33270594587782
 20
131.0823547643339
 30
0.0
 11
73.31635995398051
 21
131.0823547643339
 31
0.0
  0
LINE
  5
D2
330
1F
100
AcDbEntity
  8
0
  6
Continuous
 62
     7
100
AcDbLine
 10
73.31635995398051
 20
131.0823547643339
 30
0.0
 11
73.31635995398057
 21
131.1823547643346
 31
0.0
  0
LINE
  5
D3
330
1F
100
AcDbEntity
  8
0
  6
Continuous
 62
     7
100
AcDbLine
 10
71.7422482660877
 20
117.2823547643338
 30
0.0
 11
71.74224825375131
 21
117.1436637843733
 31
0.0
  0
LINE
  5
D4
330
1F
100
AcDbEntity
  8
0
  6
Continuous
 62
     7
100
AcDbLine
 10
73.31635995398057
 20
131.1823547643346
 30
0.0
 11
72.6911611811052
 21
131.1823547643339
 31
0.0
  0
LINE
  5
D5
330
1F
100
AcDbEntity
  8
0
  6
Continuous
 62
     7
100
AcDbLine
 10
73.31635995398051
 20
131.0369876054185
 30
0.0
 11
73.31635995398051
 21
131.0823547643339
 31
0.0
  0
LINE
  5
D6
330
1F
100
AcDbEntity
  8
0
  6
Continuous
 62
     7
100
AcDbLine
 10
72.48675138990671
 20
117.299162817541
 30
0.0
 11
72.4988335655749
 21
117.1994064125149
 31
0.0
  0
LINE
  5
D7
330
1F
100
AcDbEntity
  8
0
  6
Continuous
 62
     7
100
AcDbLine
 10
71.7422482660877
 20
117.2823547643338
 30
0.0
 11
72.48878712737582
 21
117.2823547643338
 31
0.0
  0
LINE
  5
D8
330
1F
100
AcDbEntity
  8
0
  6
Continuous
 62
     7
100
AcDbLine
 10
136.282467235243
 20
117.6045064188318
 30
0.0
 11
136.3417068617883
 21
117.6984756809106
 31
0.0
  0
LINE
  5
D9
330
1F
100
AcDbEntity
  8
0
  6
Continuous
 62
     7
100
AcDbLine
 10
130.52128823377
 20
128.0407857982813
 30
0.0
 11
130.3776947140652
 21
128.0967050886284
 31
0.0
  0
LINE
  5
DA
330
1F
100
AcDbEntity
  8
0
  6
Continuous
 62
     7
100
AcDbLine
 10
139.3911611811053
 20
131.1823547643346
 30
0.0
 11
138.7659624082303
 21
131.1823547643346
 31
0.0
  0
LINE
  5
DB
330
1F
100
AcDbEntity
  8
0
  6
Continuous
 62
     7
100
AcDbLine
 10
137.0873157602348
 20
130.9111866359019
 30
0.0
 11
137.1350575507085
 21
130.815060466308
 31
0.0
  0
LINE
  5
DC
330
1F
100
AcDbEntity
  8
0
  6
Continuous
 62
     7
100
AcDbLine
 10
138.7659624082302
 20
131.0823547643339
 30
0.0
 11
138.7659624082302
 21
131.0369876054185
 31
0.0
  0
LINE
  5
DD
330
1F
100
AcDbEntity
  8
0
  6
Continuous
 62
     7
100
AcDbLine
 10
135.5682702287671
 20
130.4858184220675
 30
0.0
 11
135.4978213756564
 21
130.5771729678318
 31
0.0
  0
LINE
  5
DE
330
1F
100
AcDbEntity
  8
0
  6
Continuous
 62
     7
100
AcDbLine
 10
125.3489481903529
 20
131.1142312455247
 30
0.0
 11
138.7418569200394
 21
131.1142312455247
 31
0.0
  0
LINE
  5
DF
330
1F
100
AcDbEntity
  8
0
  6
Continuous
 62
     7
100
AcDbLine
 10
138.7659624082303
 20
131.1823547643346
 30
0.0
 11
138.7659624082302
 21
131.0823547643339
 31
0.0
  0
LINE
  5
E0
330
1F
100
AcDbEntity
  8
0
  6
Continuous
 62
     7
100
AcDbLine
 10
124.7910877102723
 20
130.9111866359019
 30
0.0
 11
137.0873157602348
 21
130.9111866359019
 31
0.0
  0
LINE
  5
E1
330
1F
100
AcDbEntity
  8
0
  6
Continuous
 62
     7
100
AcDbLine
 10
124.5269832298946
 20
130.815060466308
 30
0.0
 11
137.1350575507085
 21
130.815060466308
 31
0.0
  0
LINE
  5
E2
330
1F
100
AcDbEntity
  8
0
  6
Continuous
 62
     7
100
AcDbLine
 10
123.8733926994606
 20
130.5771729678318
 30
0.0
 11
135.4978213756564
 21
130.5771729678318
 31
0.0
  0
LINE
  5
E3
330
1F
100
AcDbEntity
  8
0
  6
Continuous
 62
     7
100
AcDbLine
 10
131.4190889276461
 20
128.8662690088452
 30
0.0
 11
119.9461840408478
 21
128.8662690088449
 31
0.0
  0
LINE
  5
E4
330
1F
100
AcDbEntity
  8
0
  6
Continuous
 62
     7
100
AcDbLine
 10
122.3807257479608
 20
130.0338866278128
 30
0.0
 11
134.0960961754336
 21
130.0338866278128
 31
0.0
  0
LINE
  5
E5
330
1F
100
AcDbEntity
  8
0
  6
Continuous
 62
     7
100
AcDbLine
 10
121.0366027522085
 20
129.544665866166
 30
0.0
 11
132.6358555042377
 21
129.5446658661662
 31
0.0
  0
LINE
  5
E6
330
1F
100
AcDbEntity
  8
0
  6
Continuous
 62
     7
100
AcDbLine
 10
131.5478053871571
 20
128.7993559482095
 30
0.0
 11
120.1172428759335
 21
128.7993559482093
 31
0.0
  0
LINE
  5
E7
330
1F
100
AcDbEntity
  8
0
  6
Continuous
 62
     7
100
AcDbLine
 10
132.7471895840828
 20
129.4680614218542
 30
0.0
 11
132.6358555042377
 21
129.5446658661662
 31
0.0
  0
LINE
  5
E8
330
1F
100
AcDbEntity
  8
0
  6
Continuous
 62
     7
100
AcDbLine
 10
134.0043114664774
 20
130.1186914374284
 30
0.0
 11
134.0960961754336
 21
130.0338866278128
 31
0.0
  0
LINE
  5
E9
330
1F
100
AcDbEntity
  8
0
  6
Continuous
 62
     7
100
AcDbLine
 10
131.4190889276461
 20
128.8662690088452
 30
0.0
 11
131.5478053871571
 21
128.7993559482095
 31
0.0
  0
LINE
  5
EA
330
1F
100
AcDbEntity
  8
0
  6
Continuous
 62
     7
100
AcDbLine
 10
138.7659624082302
 20
131.0823547643339
 30
0.0
 11
138.7496164163331
 21
131.0823547643339
 31
0.0
  0
LINE
  5
EB
330
1F
100
AcDbEntity
  8
0
  6
Continuous
 62
     7
100
AcDbLine
 10
122.6137250474408
 20
130.1186914374284
 30
0.0
 11
134.0043114664774
 21
130.1186914374284
 31
0.0
  0
LINE
  5
EC
330
1F
100
AcDbEntity
  8
0
  6
Continuous
 62
     7
100
AcDbLine
 10
138.7659624082303
 20
131.1823547643346
 30
0.0
 11
125.5361160200145
 21
131.1823547643339
 31
0.0
  0
LINE
  5
ED
330
1F
100
AcDbEntity
  8
0
  6
Continuous
 62
     7
100
AcDbLine
 10
120.041161181105
 20
129.1823547643329
 30
0.0
 11
121.0366027522085
 21
129.544665866166
 31
0.0
  0
LINE
  5
EE
330
1F
100
AcDbEntity
  8
0
  6
Continuous
 62
     7
100
AcDbLine
 10
119.8960899813903
 20
129.1295531657878
 30
0.0
 11
120.041161181105
 21
129.1823547643329
 31
0.0
  0
LINE
  5
EF
330
1F
100
AcDbEntity
  8
0
  6
Continuous
 62
     7
100
AcDbLine
 10
124.7910877102723
 20
130.9111866359019
 30
0.0
 11
125.3489481903529
 21
131.1142312455247
 31
0.0
  0
LINE
  5
F0
330
1F
100
AcDbEntity
  8
0
  6
Continuous
 62
     7
100
AcDbLine
 10
124.7910877102723
 20
130.9111866359019
 30
0.0
 11
124.5269832298946
 21
130.815060466308
 31
0.0
  0
LINE
  5
F1
330
1F
100
AcDbEntity
  8
0
  6
Continuous
 62
     7
100
AcDbLine
 10
115.6161885175
 20
129.182354764333
 30
0.0
 11
114.3661885175
 21
129.182354764333
 31
0.0
  0
LINE
  5
F2
330
1F
100
AcDbEntity
  8
0
  6
Continuous
 62
     7
100
AcDbLine
 10
122.6137250474408
 20
130.1186914374284
 30
0.0
 11
123.8733926994606
 21
130.5771729678318
 31
0.0
  0
LINE
  5
F3
330
1F
100
AcDbEntity
  8
0
  6
Continuous
 62
     7
100
AcDbLine
 10
123.8733926994606
 20
130.5771729678318
 30
0.0
 11
124.5269832298946
 21
130.815060466308
 31
0.0
  0
LINE
  5
F4
330
1F
100
AcDbEntity
  8
0
  6
Continuous
 62
     7
100
AcDbLine
 10
125.3489481903529
 20
131.1142312455247
 30
0.0
 11
125.5361160200145
 21
131.1823547643339
 31
0.0
  0
LINE
  5
F5
330
1F
100
AcDbEntity
  8
0
  6
Continuous
 62
     7
100
AcDbLine
 10
115.6161885175
 20
129.182354764333
 30
0.0
 11
120.041161181105
 21
129.1823547643329
 31
0.0
  0
LINE
  5
F6
330
1F
100
AcDbEntity
  8
0
  6
Continuous
 62
     7
100
AcDbLine
 10
122.6137250474408
 20
130.1186914374284
 30
0.0
 11
122.3807257479608
 21
130.0338866278128
 31
0.0
  0
LINE
  5
F7
330
1F
100
AcDbEntity
  8
0
  6
Continuous
 62
     7
100
AcDbLine
 10
114.3661885175
 20
129.182354764333
 30
0.0
 11
97.71613384471021
 21
129.182354764333
 31
0.0
  0
LINE
  5
F8
330
1F
100
AcDbEntity
  8
0
  6
Continuous
 62
     7
100
AcDbLine
 10
121.0366027522085
 20
129.544665866166
 30
0.0
 11
122.3807257479608
 21
130.0338866278128
 31
0.0
  0
LINE
  5
F9
330
1F
100
AcDbEntity
  8
0
  6
Continuous
 62
     7
100
AcDbLine
 10
83.5387621877245
 20
123.4611083677862
 30
0.0
 11
83.71101843292632
 21
123.4506555214593
 31
0.0
  0
LINE
  5
FA
330
1F
100
AcDbEntity
  8
0
  6
Continuous
 62
     7
100
AcDbLine
 10
83.71101843292632
 20
123.4506555214593
 30
0.0
 11
98.541161181105
 21
123.4506555214593
 31
0.0
  0
LINE
  5
FB
330
1F
100
AcDbEntity
  8
0
  6
Continuous
 62
     7
100
AcDbLine
 10
98.541161181105
 20
125.3805271902347
 30
0.0
 11
98.541161181105
 21
124.4266512412505
 31
0.0
  0
LINE
  5
FC
330
1F
100
AcDbEntity
  8
0
  6
Continuous
 62
     7
100
AcDbLine
 10
83.77005109191094
 20
124.4266512412505
 30
0.0
 11
98.541161181105
 21
124.4266512412505
 31
0.0
  0
LINE
  5
FD
330
1F
100
AcDbEntity
  8
0
  6
Continuous
 62
     7
100
AcDbLine
 10
83.59324071613781
 20
125.3978920080015
 30
0.0
 11
98.541161181105
 21
125.3978920080015
 31
0.0
  0
LINE
  5
FE
330
1F
100
AcDbEntity
  8
0
  6
Continuous
 62
     7
100
AcDbLine
 10
83.4226670097471
 20
125.3805271902347
 30
0.0
 11
98.541161181105
 21
125.3805271902347
 31
0.0
  0
LINE
  5
FF
330
1F
100
AcDbEntity
  8
0
  6
Continuous
 62
     7
100
AcDbLine
 10
83.77005109191094
 20
124.4266512412505
 30
0.0
 11
83.59695152300941
 21
124.4231612915803
 31
0.0
  0
LINE
  5
100
330
1F
100
AcDbEntity
  8
0
  6
Continuous
 62
     7
100
AcDbLine
 10
83.18402871845211
 20
126.3454737249576
 30
0.0
 11
98.541161181105
 21
126.3454737249579
 31
0.0
  0
LINE
  5
101
330
1F
100
AcDbEntity
  8
0
  6
Continuous
 62
     7
100
AcDbLine
 10
83.18402871845211
 20
126.3454737249576
 30
0.0
 11
83.01930089774271
 21
126.3145720255201
 31
0.0
  0
LINE
  5
102
330
1F
100
AcDbEntity
  8
0
  6
Continuous
 62
     7
100
AcDbLine
 10
113.541161181105
 20
126.3454737249579
 30
0.0
 11
113.541161181105
 21
125.3978920080015
 31
0.0
  0
LINE
  5
103
330
1F
100
AcDbEntity
  8
0
  6
Continuous
 62
     7
100
AcDbLine
 10
133.3027236470358
 20
118.5192358037086
 30
0.0
 11
133.4045310391268
 21
118.600137503146
 31
0.0
  0
LINE
  5
104
330
1F
100
AcDbEntity
  8
0
  6
Continuous
 62
     7
100
AcDbLine
 10
129.063021464468
 20
126.3145720255201
 30
0.0
 11
128.8982936437589
 21
126.3454737249576
 31
0.0
  0
LINE
  5
105
330
1F
100
AcDbEntity
  8
0
  6
Continuous
 62
     7
100
AcDbLine
 10
113.5411611811052
 20
120.682354764333
 30
0.0
 11
113.5411611811053
 21
120.2323547643338
 31
0.0
  0
LINE
  5
106
330
1F
100
AcDbEntity
  8
0
  6
Continuous
 62
     7
100
AcDbLine
 10
113.541161181105
 20
122.4889014951355
 30
0.0
 11
128.6650306194686
 21
122.4889014951352
 31
0.0
  0
LINE
  5
107
330
1F
100
AcDbEntity
  8
0
  6
Continuous
 62
     7
100
AcDbLine
 10
113.541161181105
 20
122.5130936846952
 30
0.0
 11
128.8330907690963
 21
122.5130936846952
 31
0.0
  0
LINE
  5
108
330
1F
100
AcDbEntity
  8
0
  6
Continuous
 62
     7
100
AcDbLine
 10
113.541161181105
 20
123.4506555214593
 30
0.0
 11
128.3713039292845
 21
123.4506555214593
 31
0.0
  0
LINE
  5
109
330
1F
100
AcDbEntity
  8
0
  6
Continuous
 62
     7
100
AcDbLine
 10
128.3713039292845
 20
123.4506555214593
 30
0.0
 11
128.5435601744862
 21
123.4611083677862
 31
0.0
  0
LINE
  5
10A
330
1F
100
AcDbEntity
  8
0
  6
Continuous
 62
     7
100
AcDbLine
 10
113.541161181105
 20
125.3978920080015
 30
0.0
 11
128.4890816460732
 21
125.3978920080015
 31
0.0
  0
LINE
  5
10B
330
1F
100
AcDbEntity
  8
0
  6
Continuous
 62
     7
100
AcDbLine
 10
113.541161181105
 20
125.3805271902347
 30
0.0
 11
128.6596553524637
 21
125.3805271902347
 31
0.0
  0
LINE
  5
10C
330
1F
100
AcDbEntity
  8
0
  6
Continuous
 62
     7
100
AcDbLine
 10
128.4890816460732
 20
125.3978920080015
 30
0.0
 11
128.6596553524637
 21
125.3805271902347
 31
0.0
  0
LINE
  5
10D
330
1F
100
AcDbEntity
  8
0
  6
Continuous
 62
     7
100
AcDbLine
 10
113.5411611811052
 20
120.682354764333
 30
0.0
 11
129.9292410934074
 21
120.682354764333
 31
0.0
  0
LINE
  5
10E
330
1F
100
AcDbEntity
  8
0
  6
Continuous
 62
     7
100
AcDbLine
 10
113.5411611811052
 20
121.5601086104217
 30
0.0
 11
129.1877342849368
 21
121.5601086104216
 31
0.0
  0
LINE
  5
10F
330
1F
100
AcDbEntity
  8
0
  6
Continuous
 62
     7
100
AcDbLine
 10
113.5411611811053
 20
120.732354764333
 30
0.0
 11
130.0792410934072
 21
120.7323547643333
 31
0.0
  0
LINE
  5
110
330
1F
100
AcDbEntity
  8
0
  6
Continuous
 62
     7
100
AcDbLine
 10
113.541161181105
 20
122.4889014951355
 30
0.0
 11
113.5411611811052
 21
121.5601086104217
 31
0.0
  0
LINE
  5
111
330
1F
100
AcDbEntity
  8
0
  6
Continuous
 62
     7
100
AcDbLine
 10
128.8330907690963
 20
122.5130936846952
 30
0.0
 11
128.6650306194686
 21
122.4889014951352
 31
0.0
  0
LINE
  5
112
330
1F
100
AcDbEntity
  8
0
  6
Continuous
 62
     7
100
AcDbLine
 10
129.1877342849368
 20
121.5601086104216
 30
0.0
 11
129.3483272393435
 21
121.5975692697632
 31
0.0
  0
LINE
  5
113
330
1F
100
AcDbEntity
  8
0
  6
Continuous
 62
     7
100
AcDbLine
 10
130.0792410934072
 20
120.7323547643333
 30
0.0
 11
129.9292410934074
 21
120.682354764333
 31
0.0
  0
LINE
  5
114
330
1F
100
AcDbEntity
  8
0
  6
Continuous
 62
     7
100
AcDbLine
 10
113.5411611811052
 20
124.4266512412505
 30
0.0
 11
113.541161181105
 21
123.4506555214593
 31
0.0
  0
LINE
  5
115
330
1F
100
AcDbEntity
  8
0
  6
Continuous
 62
     7
100
AcDbLine
 10
113.5411611811052
 20
124.4266512412505
 30
0.0
 11
128.3122712702999
 21
124.4266512412505
 31
0.0
  0
LINE
  5
116
330
1F
100
AcDbEntity
  8
0
  6
Continuous
 62
     7
100
AcDbLine
 10
128.4853708392016
 20
124.4231612915803
 30
0.0
 11
128.3122712702999
 21
124.4266512412505
 31
0.0
  0
LINE
  5
117
330
1F
100
AcDbEntity
  8
0
  6
Continuous
 62
     7
100
AcDbLine
 10
113.5411611811053
 20
120.2323547643338
 30
0.0
 11
113.5411611811053
 21
119.8727244370534
 31
0.0
  0
LINE
  5
118
330
1F
100
AcDbEntity
  8
0
  6
Continuous
 62
     7
100
AcDbLine
 10
130.8751184583051
 20
119.8727244370534
 30
0.0
 11
113.5411611811053
 21
119.8727244370534
 31
0.0
  0
LINE
  5
119
330
1F
100
AcDbEntity
  8
0
  6
Continuous
 62
     7
100
AcDbLine
 10
130.8751184583051
 20
119.8727244370534
 30
0.0
 11
131.0116059245208
 21
119.9342905845861
 31
0.0
  0
LINE
  5
11A
330
1F
100
AcDbEntity
  8
0
  6
Continuous
 62
     7
100
AcDbLine
 10
113.5411611811052
 20
120.682354764333
 30
0.0
 11
113.5411611811053
 21
120.732354764333
 31
0.0
  0
LINE
  5
11B
330
1F
100
AcDbEntity
  8
0
  6
Continuous
 62
     7
100
AcDbLine
 10
113.5411611811052
 20
121.5601086104217
 30
0.0
 11
113.5411611811053
 21
120.732354764333
 31
0.0
  0
LINE
  5
11C
330
1F
100
AcDbEntity
  8
0
  6
Continuous
 62
     7
100
AcDbLine
 10
113.541161181105
 20
122.4889014951355
 30
0.0
 11
113.541161181105
 21
122.5130936846952
 31
0.0
  0
LINE
  5
11D
330
1F
100
AcDbEntity
  8
0
  6
Continuous
 62
     7
100
AcDbLine
 10
113.541161181105
 20
123.4506555214593
 30
0.0
 11
113.541161181105
 21
122.5130936846952
 31
0.0
  0
LINE
  5
11E
330
1F
100
AcDbEntity
  8
0
  6
Continuous
 62
     7
100
AcDbLine
 10
113.541161181105
 20
125.3805271902347
 30
0.0
 11
113.541161181105
 21
125.3978920080015
 31
0.0
  0
LINE
  5
11F
330
1F
100
AcDbEntity
  8
0
  6
Continuous
 62
     7
100
AcDbLine
 10
113.541161181105
 20
125.3805271902347
 30
0.0
 11
113.5411611811052
 21
124.4266512412505
 31
0.0
  0
LINE
  5
120
330
1F
100
AcDbEntity
  8
0
  6
Continuous
 62
     7
100
AcDbLine
 10
108.5411056717952
 20
124.3328214137538
 30
0.0
 11
107.7411056718041
 21
124.7901051547608
 31
0.0
  0
LINE
  5
121
330
1F
100
AcDbEntity
  8
0
  6
Continuous
 62
     7
100
AcDbLine
 10
107.841161181103
 20
124.2721812468357
 30
0.0
 11
108.3412166912582
 21
123.9863471788389
 31
0.0
  0
LINE
  5
122
330
1F
100
AcDbEntity
  8
0
  6
Continuous
 62
     7
100
AcDbLine
 10
107.841161181103
 20
124.2721812468357
 30
0.0
 11
107.841161181103
 21
123.5073547643331
 31
0.0
  0
LINE
  5
123
330
1F
100
AcDbEntity
  8
0
  6
Continuous
 62
     7
100
AcDbLine
 10
107.841161181103
 20
123.5073547643331
 30
0.0
 11
108.441161181105
 21
123.5073547643331
 31
0.0
  0
LINE
  5
124
330
1F
100
AcDbEntity
  8
0
  6
Continuous
 62
     7
100
AcDbLine
 10
106.1277637214835
 20
123.4385111325087
 30
0.0
 11
106.641161181105
 21
124.3277416170495
 31
0.0
  0
LINE
  5
125
330
1F
100
AcDbEntity
  8
0
  6
Continuous
 62
     7
100
AcDbLine
 10
106.0411611811069
 20
126.1073547643297
 30
0.0
 11
110.9396515473788
 21
123.3073547643296
 31
0.0
  0
LINE
  5
126
330
1F
100
AcDbEntity
  8
0
  6
Continuous
 62
     7
100
AcDbLine
 10
111.1907866000738
 20
123.3941724917405
 30
0.0
 11
106.1404120190438
 21
126.280990219147
 31
0.0
  0
LINE
  5
127
330
1F
100
AcDbEntity
  8
0
  6
Continuous
 62
     7
100
AcDbLine
 10
104.4412721997085
 20
121.7673880166103
 30
0.0
 11
105.7412166904085
 21
121.0243502568239
 31
0.0
  0
LINE
  5
128
330
1F
100
AcDbEntity
  8
0
  6
Continuous
 62
     7
100
AcDbLine
 10
105.9411056717821
 20
121.3708244912561
 30
0.0
 11
104.641161181105
 21
122.1138622510296
 31
0.0
  0
LINE
  5
129
330
1F
100
AcDbEntity
  8
0
  6
Continuous
 62
     7
100
AcDbLine
 10
106.041161181105
 20
120.5073547643331
 30
0.0
 11
101.1425614450637
 21
123.3073547643296
 31
0.0
  0
LINE
  5
12A
330
1F
100
AcDbEntity
  8
0
  6
Continuous
 62
     7
100
AcDbLine
 10
100.8915925544036
 20
123.2204401216802
 30
0.0
 11
105.9419120134116
 21
120.3337183548097
 31
0.0
  0
LINE
  5
12B
330
1F
100
AcDbEntity
  8
0
  6
Continuous
 62
     7
100
AcDbLine
 10
105.4411611811032
 20
124.3277416170486
 30
0.0
 11
105.9545586407267
 21
123.4385111325084
 31
0.0
  0
LINE
  5
12C
330
1F
100
AcDbEntity
  8
0
  6
Continuous
 62
     7
100
AcDbLine
 10
106.0411611811031
 20
124.0885111325073
 30
0.0
 11
105.4143662618599
 21
125.1741517785624
 31
0.0
  0
LINE
  5
12D
330
1F
100
AcDbEntity
  8
0
  6
Continuous
 62
     7
100
AcDbLine
 10
101.1425614450637
 20
123.3073547643296
 30
0.0
 11
106.0411611811069
 21
126.1073547643297
 31
0.0
  0
LINE
  5
12E
330
1F
100
AcDbEntity
  8
0
  6
Continuous
 62
     7
100
AcDbLine
 10
105.9419120134131
 20
126.280991173853
 30
0.0
 11
100.8915925544056
 21
123.3942694069824
 31
0.0
  0
LINE
  5
12F
330
1F
100
AcDbEntity
  8
0
  6
Continuous
 62
     7
100
AcDbLine
 10
108.3412166895601
 20
122.628328553291
 30
0.0
 11
107.8411611811051
 21
122.342530124266
 31
0.0
  0
LINE
  5
130
330
1F
100
AcDbEntity
  8
0
  6
Continuous
 62
     7
100
AcDbLine
 10
107.741105671795
 20
121.8246043739002
 30
0.0
 11
108.5411056718003
 21
122.2818543193585
 31
0.0
  0
LINE
  5
131
330
1F
100
AcDbEntity
  8
0
  6
Continuous
 62
     7
100
AcDbLine
 10
107.8411611811051
 20
123.1073547643332
 30
0.0
 11
108.441161181105
 21
123.1073547643332
 31
0.0
  0
LINE
  5
132
330
1F
100
AcDbEntity
  8
0
  6
Continuous
 62
     7
100
AcDbLine
 10
107.8411611811051
 20
123.1073547643332
 30
0.0
 11
107.8411611811051
 21
122.342530124266
 31
0.0
  0
LINE
  5
133
330
1F
100
AcDbEntity
  8
0
  6
Continuous
 62
     7
100
AcDbLine
 10
110.9396515473788
 20
123.3073547643296
 30
0.0
 11
106.041161181105
 21
120.5073547643331
 31
0.0
  0
LINE
  5
134
330
1F
100
AcDbEntity
  8
0
  6
Continuous
 62
     7
100
AcDbLine
 10
107.441161181105
 20
124.6168680375515
 30
0.0
 11
107.441161181105
 21
121.9978414911141
 31
0.0
  0
LINE
  5
135
330
1F
100
AcDbEntity
  8
0
  6
Continuous
 62
     7
100
AcDbLine
 10
104.641161181105
 20
124.6211565536348
 30
0.0
 11
104.641161181105
 21
122.1138622510296
 31
0.0
  0
LINE
  5
136
330
1F
100
AcDbEntity
  8
0
  6
Continuous
 62
     7
100
AcDbLine
 10
103.8411611811051
 20
124.1596180920964
 30
0.0
 11
103.8411611811054
 21
122.4550914365686
 31
0.0
  0
LINE
  5
137
330
1F
100
AcDbEntity
  8
0
  6
Continuous
 62
     7
100
AcDbLine
 10
103.441161181105
 20
124.1596180920964
 30
0.0
 11
103.4411611811048
 21
122.4550914365689
 31
0.0
  0
LINE
  5
138
330
1F
100
AcDbEntity
  8
0
  6
Continuous
 62
     7
100
AcDbLine
 10
105.041161181105
 20
125.0741517785637
 30
0.0
 11
105.0411611811047
 21
122.4550914365686
 31
0.0
  0
LINE
  5
139
330
1F
100
AcDbEntity
  8
0
  6
Continuous
 62
     7
100
AcDbLine
 10
105.4411611811032
 20
124.3277416170486
 30
0.0
 11
105.4411611811053
 21
122.4550914365686
 31
0.0
  0
LINE
  5
13A
330
1F
100
AcDbEntity
  8
0
  6
Continuous
 62
     7
100
AcDbLine
 10
107.041161181105
 20
125.0741517785637
 30
0.0
 11
107.0411611811053
 21
121.5405577500944
 31
0.0
  0
LINE
  5
13B
330
1F
100
AcDbEntity
  8
0
  6
Continuous
 62
     7
100
AcDbLine
 10
106.6679561001668
 20
125.1741517782516
 30
0.0
 11
106.0411611811031
 21
124.0885111325073
 31
0.0
  0
LINE
  5
13C
330
1F
100
AcDbEntity
  8
0
  6
Continuous
 62
     7
100
AcDbLine
 10
106.641161181105
 20
124.3277416170495
 30
0.0
 11
106.6411611811047
 21
121.5405577500899
 31
0.0
  0
LINE
  5
13D
330
1F
100
AcDbEntity
  8
0
  6
Continuous
 62
     7
100
AcDbLine
 10
104.241161181105
 20
124.6211565536363
 30
0.0
 11
104.241161181105
 21
122.1138622510293
 31
0.0
  0
LINE
  5
13E
330
1F
100
AcDbEntity
  8
0
  6
Continuous
 62
     7
100
AcDbLine
 10
98.84116118110529
 20
119.9323547643338
 30
0.0
 11
113.2411611811052
 21
119.9323547643338
 31
0.0
  0
LINE
  5
13F
330
1F
100
AcDbEntity
  8
0
  6
Continuous
 62
     7
100
AcDbLine
 10
98.54116118107453
 20
120.2323547643337
 30
0.0
 11
98.54116118110534
 21
119.8727244370534
 31
0.0
  0
LINE
  5
140
330
1F
100
AcDbEntity
  8
0
  6
Continuous
 62
     7
100
AcDbLine
 10
98.54116118110534
 20
120.682354764333
 30
0.0
 11
98.54116118107453
 21
120.2323547643337
 31
0.0
  0
LINE
  5
141
330
1F
100
AcDbEntity
  8
0
  6
Continuous
 62
     7
100
AcDbLine
 10
98.54116118110534
 20
120.732354764333
 30
0.0
 11
82.00308126880344
 21
120.732354764333
 31
0.0
  0
LINE
  5
142
330
1F
100
AcDbEntity
  8
0
  6
Continuous
 62
     7
100
AcDbLine
 10
98.54116118110534
 20
120.682354764333
 30
0.0
 11
98.54116118110534
 21
120.732354764333
 31
0.0
  0
LINE
  5
143
330
1F
100
AcDbEntity
  8
0
  6
Continuous
 62
     7
100
AcDbLine
 10
98.54116118110522
 20
121.5601086104217
 30
0.0
 11
98.54116118110534
 21
120.732354764333
 31
0.0
  0
LINE
  5
144
330
1F
100
AcDbEntity
  8
0
  6
Continuous
 62
     7
100
AcDbLine
 10
82.73399512286733
 20
121.5975692697632
 30
0.0
 11
82.89458807727414
 21
121.5601086104217
 31
0.0
  0
LINE
  5
145
330
1F
100
AcDbEntity
  8
0
  6
Continuous
 62
     7
100
AcDbLine
 10
81.07071643769001
 20
119.9342905845862
 30
0.0
 11
81.20720390390579
 21
119.8727244370534
 31
0.0
  0
LINE
  5
146
330
1F
100
AcDbEntity
  8
0
  6
Continuous
 62
     7
100
AcDbLine
 10
82.15308126880353
 20
120.682354764333
 30
0.0
 11
82.00308126880344
 21
120.732354764333
 31
0.0
  0
LINE
  5
147
330
1F
100
AcDbEntity
  8
0
  6
Continuous
 62
     7
100
AcDbLine
 10
98.541161181105
 20
122.4889014951355
 30
0.0
 11
98.54116118110522
 21
121.5601086104217
 31
0.0
  0
LINE
  5
148
330
1F
100
AcDbEntity
  8
0
  6
Continuous
 62
     7
100
AcDbLine
 10
82.89458807727414
 20
121.5601086104217
 30
0.0
 11
98.54116118110522
 21
121.5601086104217
 31
0.0
  0
LINE
  5
149
330
1F
100
AcDbEntity
  8
0
  6
Continuous
 62
     7
100
AcDbLine
 10
98.541161181105
 20
122.5130936846952
 30
0.0
 11
98.541161181105
 21
122.4889014951355
 31
0.0
  0
LINE
  5
14A
330
1F
100
AcDbEntity
  8
0
  6
Continuous
 62
     7
100
AcDbLine
 10
83.24923159311464
 20
122.5130936846952
 30
0.0
 11
98.541161181105
 21
122.5130936846952
 31
0.0
  0
LINE
  5
14B
330
1F
100
AcDbEntity
  8
0
  6
Continuous
 62
     7
100
AcDbLine
 10
98.541161181105
 20
123.4506555214593
 30
0.0
 11
98.541161181105
 21
122.5130936846952
 31
0.0
  0
LINE
  5
14C
330
1F
100
AcDbEntity
  8
0
  6
Continuous
 62
     7
100
AcDbLine
 10
83.4172917427423
 20
122.4889014951355
 30
0.0
 11
98.541161181105
 21
122.4889014951355
 31
0.0
  0
LINE
  5
14D
330
1F
100
AcDbEntity
  8
0
  6
Continuous
 62
     7
100
AcDbLine
 10
98.541161181105
 20
124.4266512412505
 30
0.0
 11
98.541161181105
 21
123.4506555214593
 31
0.0
  0
LINE
  5
14E
330
1F
100
AcDbEntity
  8
0
  6
Continuous
 62
     7
100
AcDbLine
 10
98.541161181105
 20
125.3978920080015
 30
0.0
 11
98.541161181105
 21
125.3805271902347
 31
0.0
  0
LINE
  5
14F
330
1F
100
AcDbEntity
  8
0
  6
Continuous
 62
     7
100
AcDbLine
 10
98.541161181105
 20
126.3454737249579
 30
0.0
 11
98.541161181105
 21
125.3978920080015
 31
0.0
  0
LINE
  5
150
330
1F
100
AcDbEntity
  8
0
  6
Continuous
 62
     7
100
AcDbLine
 10
83.4226670097471
 20
125.3805271902347
 30
0.0
 11
83.59324071613781
 21
125.3978920080015
 31
0.0
  0
LINE
  5
151
330
1F
100
AcDbEntity
  8
0
  6
Continuous
 62
     7
100
AcDbLine
 10
83.4172917427423
 20
122.4889014951355
 30
0.0
 11
83.24923159311464
 21
122.5130936846952
 31
0.0
  0
LINE
  5
152
330
1F
100
AcDbEntity
  8
0
  6
Continuous
 62
     7
100
AcDbLine
 10
98.54116118110534
 20
119.8727244370534
 30
0.0
 11
81.20720390390579
 21
119.8727244370534
 31
0.0
  0
LINE
  5
153
330
1F
100
AcDbEntity
  8
0
  6
Continuous
 62
     7
100
AcDbLine
 10
98.54116118110534
 20
120.682354764333
 30
0.0
 11
82.15308126880353
 21
120.682354764333
 31
0.0
  0
LINE
  5
154
330
1F
100
AcDbEntity
  8
0
  6
Continuous
 62
     7
100
AcDbLine
 10
106.1404120190458
 20
120.3337193095158
 30
0.0
 11
111.1907866000757
 21
123.2205370369225
 31
0.0
  0
LINE
  5
155
330
1F
100
AcDbEntity
  8
0
  6
Continuous
 62
     7
100
AcDbLine
 10
72.6911611811052
 20
131.1823547643339
 30
0.0
 11
69.04116118110522
 21
131.1823547643346
 31
0.0
  0
LINE
  5
156
330
1F
100
AcDbEntity
  8
0
  6
Continuous
 62
     7
100
AcDbLine
 10
68.54116118110522
 20
130.6823547643346
 30
0.0
 11
68.54116118110522
 21
111.6454113578779
 31
0.0
  0
LINE
  5
157
330
1F
100
AcDbEntity
  8
0
  6
Continuous
 62
     7
100
AcDbLine
 10
68.54116118110522
 20
107.382354764336
 30
0.0
 11
68.54116118110522
 21
111.6454113578779
 31
0.0
  0
LINE
  5
158
330
1F
100
AcDbEntity
  8
0
  6
Continuous
 62
     7
100
AcDbLine
 10
68.54116118110522
 20
99.28235476433571
 30
0.0
 11
68.54116118110522
 21
100.9479618142969
 31
0.0
  0
LINE
  5
159
330
1F
100
AcDbEntity
  8
0
  6
Continuous
 62
     7
100
AcDbLine
 10
69.04116118110522
 20
98.78235476433571
 30
0.0
 11
73.79116118110511
 21
98.78235476433571
 31
0.0
  0
LINE
  5
15A
330
1F
100
AcDbEntity
  8
0
  6
Continuous
 62
     7
100
AcDbLine
 10
68.54116118110522
 20
100.9479618142969
 30
0.0
 11
68.54116118110522
 21
103.5823547643361
 31
0.0
  0
LINE
  5
15B
330
1F
100
AcDbEntity
  8
0
  6
Continuous
 62
     7
100
AcDbLine
 10
143.5411611811053
 20
111.6454113578779
 30
0.0
 11
143.5411611811053
 21
130.6823547643346
 31
0.0
  0
LINE
  5
15C
330
1F
100
AcDbEntity
  8
0
  6
Continuous
 62
     7
100
AcDbLine
 10
76.59116118110529
 20
113.572789868516
 30
0.0
 11
135.4911611811052
 21
113.572789868516
 31
0.0
  0
LINE
  5
15D
330
1F
100
AcDbEntity
  8
0
  6
Continuous
 62
     7
100
AcDbLine
 10
73.79116118110511
 20
110.9617476273306
 30
0.0
 11
73.79116118110511
 21
100.5822849634873
 31
0.0
  0
LINE
  5
15E
330
1F
100
AcDbEntity
  8
0
  6
Continuous
 62
     7
100
AcDbLine
 10
73.79116118110511
 20
98.78235476433571
 30
0.0
 11
73.79116118110511
 21
100.5822849634873
 31
0.0
  0
LINE
  5
15F
330
1F
100
AcDbEntity
  8
0
  6
Continuous
 62
     7
100
AcDbLine
 10
143.5411611811053
 20
100.9479618142969
 30
0.0
 11
143.5411611811053
 21
103.5823547643361
 31
0.0
  0
LINE
  5
160
330
1F
100
AcDbEntity
  8
0
  6
Continuous
 62
     7
100
AcDbLine
 10
143.5411611811053
 20
103.5823547643361
 30
0.0
 11
143.5411611811053
 21
107.382354764336
 31
0.0
  0
LINE
  5
161
330
1F
100
AcDbEntity
  8
0
  6
Continuous
 62
     7
100
AcDbLine
 10
143.5411611811053
 20
99.28235476433571
 30
0.0
 11
143.5411611811053
 21
100.9479618142969
 31
0.0
  0
LINE
  5
162
330
1F
100
AcDbEntity
  8
0
  6
Continuous
 62
     7
100
AcDbLine
 10
143.5411611811053
 20
107.382354764336
 30
0.0
 11
143.5411611811053
 21
111.6454113578779
 31
0.0
  0
LINE
  5
163
330
1F
100
AcDbEntity
  8
0
  6
Continuous
 62
     7
100
AcDbLine
 10
138.2911611811053
 20
98.78235476433571
 30
0.0
 11
138.2911611811053
 21
100.5822849634873
 31
0.0
  0
LINE
  5
164
330
1F
100
AcDbEntity
  8
0
  6
Continuous
 62
     7
100
AcDbLine
 10
143.0411611811053
 20
98.78235476433571
 30
0.0
 11
138.2911611811053
 21
98.78235476433571
 31
0.0
  0
LINE
  5
165
330
1F
100
AcDbEntity
  8
0
  6
Continuous
 62
     7
100
AcDbLine
 10
138.2911611811053
 20
110.9617476273306
 30
0.0
 11
138.2911611811053
 21
100.5822849634873
 31
0.0
  0
LINE
  5
166
330
1F
100
AcDbEntity
  8
0
  6
Continuous
 62
     7
100
AcDbLine
 10
73.79116118110522
 20
108.6323547643361
 30
0.0
 11
74.04116118110511
 21
108.882354764336
 31
0.0
  0
LINE
  5
167
330
1F
100
AcDbEntity
  8
0
  6
Continuous
 62
     7
100
AcDbLine
 10
68.54116118110522
 20
107.382354764336
 30
0.0
 11
68.54116118110522
 21
103.5823547643361
 31
0.0
  0
LINE
  5
168
330
1F
100
AcDbEntity
  8
0
  6
Continuous
 62
     7
100
AcDbLine
 10
70.54116118110522
 20
93.682354764336
 30
0.0
 11
66.54116118110522
 21
93.682354764336
 31
0.0
  0
LINE
  5
169
330
1F
100
AcDbEntity
  8
0
  6
Continuous
 62
     7
100
AcDbLine
 10
74.04116118110511
 20
102.0823547643361
 30
0.0
 11
74.42683921304632
 21
102.0823547643361
 31
0.0
  0
LINE
  5
16A
330
1F
100
AcDbEntity
  8
0
  6
Continuous
 62
     7
100
AcDbLine
 10
73.85787791830643
 20
93.682354764336
 30
0.0
 11
70.54116118110522
 21
93.682354764336
 31
0.0
  0
LINE
  5
16B
330
1F
100
AcDbEntity
  8
0
  6
Continuous
 62
     7
100
AcDbLine
 10
73.79116118110522
 20
102.332354764336
 30
0.0
 11
74.04116118110511
 21
102.0823547643361
 31
0.0
  0
LINE
  5
16C
330
1F
100
AcDbEntity
  8
0
  6
Continuous
 62
     7
100
AcDbLine
 10
74.3578588798386
 20
94.1779914965868
 30
0.0
 11
74.42683921304632
 21
102.0823547643361
 31
0.0
  0
LINE
  5
16D
330
1F
100
AcDbEntity
  8
0
  6
Continuous
 62
     7
100
AcDbLine
 10
137.5626632361246
 20
112.7184633046737
 30
0.0
 11
137.5961404481871
 21
108.882354764336
 31
0.0
  0
LINE
  5
16E
330
1F
100
AcDbEntity
  8
0
  6
Continuous
 62
     7
100
AcDbLine
 10
138.2911611811053
 20
108.632354764336
 30
0.0
 11
138.0411611811053
 21
108.882354764336
 31
0.0
  0
LINE
  5
16F
330
1F
100
AcDbEntity
  8
0
  6
Continuous
 62
     7
100
AcDbLine
 10
138.0411611811053
 20
102.0823547643361
 30
0.0
 11
137.6554831491644
 21
102.0823547643361
 31
0.0
  0
LINE
  5
170
330
1F
100
AcDbEntity
  8
0
  6
Continuous
 62
     7
100
AcDbLine
 10
138.0411611811053
 20
102.0823547643361
 30
0.0
 11
138.0411611811053
 21
108.882354764336
 31
0.0
  0
LINE
  5
171
330
1F
100
AcDbEntity
  8
0
  6
Continuous
 62
     7
100
AcDbLine
 10
138.0411611811053
 20
108.882354764336
 30
0.0
 11
137.5961404481871
 21
108.882354764336
 31
0.0
  0
LINE
  5
172
330
1F
100
AcDbEntity
  8
0
  6
Continuous
 62
     7
100
AcDbLine
 10
138.2911611811053
 20
102.3323547643361
 30
0.0
 11
138.0411611811053
 21
102.0823547643361
 31
0.0
  0
LINE
  5
173
330
1F
100
AcDbEntity
  8
0
  6
Continuous
 62
     7
100
AcDbLine
 10
137.5961404481871
 20
108.882354764336
 30
0.0
 11
137.6554831491644
 21
102.0823547643361
 31
0.0
  0
LINE
  5
174
330
1F
100
AcDbEntity
  8
0
  6
Continuous
 62
     7
100
AcDbLine
 10
70.54116118110522
 20
88.38235476433601
 30
0.0
 11
141.5411611811053
 21
88.38235476433601
 31
0.0
  0
LINE
  5
175
330
1F
100
AcDbEntity
  8
0
  6
Continuous
 62
     7
100
AcDbLine
 10
70.54116118110522
 20
91.88235476433601
 30
0.0
 11
141.5411611811053
 21
91.88235476433601
 31
0.0
  0
LINE
  5
176
330
1F
100
AcDbEntity
  8
0
  6
Continuous
 62
     7
100
AcDbLine
 10
64.54116118110522
 20
91.88235476433601
 30
0.0
 11
64.54116118110522
 21
88.38235476433601
 31
0.0
  0
LINE
  5
177
330
1F
100
AcDbEntity
  8
0
  6
Continuous
 62
     7
100
AcDbLine
 10
65.54116118110522
 20
91.88235476433601
 30
0.0
 11
64.54116118110522
 21
91.88235476433601
 31
0.0
  0
LINE
  5
178
330
1F
100
AcDbEntity
  8
0
  6
Continuous
 62
     7
100
AcDbLine
 10
65.54116118110522
 20
92.682354764336
 30
0.0
 11
65.54116118110522
 21
91.88235476433601
 31
0.0
  0
LINE
  5
179
330
1F
100
AcDbEntity
  8
0
  6
Continuous
 62
     7
100
AcDbLine
 10
70.54116118110522
 20
91.88235476433601
 30
0.0
 11
65.54116118110522
 21
91.88235476433601
 31
0.0
  0
LINE
  5
17A
330
1F
100
AcDbEntity
  8
0
  6
Continuous
 62
     7
100
AcDbLine
 10
70.54116118110522
 20
88.38235476433601
 30
0.0
 11
64.54116118110522
 21
88.38235476433601
 31
0.0
  0
LINE
  5
17B
330
1F
100
AcDbEntity
  8
0
  6
Continuous
 62
     7
100
AcDbLine
 10
74.04116118110511
 20
108.882354764336
 30
0.0
 11
74.04116118110511
 21
102.0823547643361
 31
0.0
  0
LINE
  5
17C
330
1F
100
AcDbEntity
  8
0
  6
Continuous
 62
     7
100
AcDbLine
 10
74.04116118110511
 20
108.882354764336
 30
0.0
 11
74.48618191402346
 21
108.882354764336
 31
0.0
  0
LINE
  5
17D
330
1F
100
AcDbEntity
  8
0
  6
Continuous
 62
     7
100
AcDbLine
 10
74.42683921304632
 20
102.0823547643361
 30
0.0
 11
74.48618191402346
 21
108.882354764336
 31
0.0
  0
LINE
  5
17E
330
1F
100
AcDbEntity
  8
0
  6
Continuous
 62
     7
100
AcDbLine
 10
74.48618191402346
 20
108.882354764336
 30
0.0
 11
74.51965912608597
 21
112.7184633046739
 31
0.0
  0
LINE
  5
17F
330
1F
100
AcDbEntity
  8
0
  6
Continuous
 62
     7
100
AcDbLine
 10
143.5411611811053
 20
103.5823547643361
 30
0.0
 11
143.5411611811053
 21
107.382354764336
 31
0.0
  0
LINE
  5
180
330
1F
100
AcDbEntity
  8
0
  6
Continuous
 62
     7
100
AcDbLine
 10
147.5411611811053
 20
88.38235476433601
 30
0.0
 11
141.5411611811053
 21
88.38235476433601
 31
0.0
  0
LINE
  5
181
330
1F
100
AcDbEntity
  8
0
  6
Continuous
 62
     7
100
AcDbLine
 10
147.5411611811053
 20
91.88235476433601
 30
0.0
 11
146.5411611811053
 21
91.88235476433601
 31
0.0
  0
LINE
  5
182
330
1F
100
AcDbEntity
  8
0
  6
Continuous
 62
     7
100
AcDbLine
 10
146.5411611811053
 20
92.682354764336
 30
0.0
 11
146.5411611811053
 21
91.88235476433601
 31
0.0
  0
LINE
  5
183
330
1F
100
AcDbEntity
  8
0
  6
Continuous
 62
     7
100
AcDbLine
 10
145.5411611811053
 20
93.682354764336
 30
0.0
 11
141.5411611811053
 21
93.682354764336
 31
0.0
  0
LINE
  5
184
330
1F
100
AcDbEntity
  8
0
  6
Continuous
 62
     7
100
AcDbLine
 10
147.5411611811053
 20
91.88235476433601
 30
0.0
 11
147.5411611811053
 21
88.38235476433601
 31
0.0
  0
LINE
  5
185
330
1F
100
AcDbEntity
  8
0
  6
Continuous
 62
     7
100
AcDbLine
 10
146.5411611811053
 20
91.88235476433601
 30
0.0
 11
141.5411611811053
 21
91.88235476433601
 31
0.0
  0
LINE
  5
186
330
1F
100
AcDbEntity
  8
0
  6
Continuous
 62
     7
100
AcDbLine
 10
137.6554831491644
 20
102.0823547643361
 30
0.0
 11
137.724463482372
 21
94.1779914965868
 31
0.0
  0
LINE
  5
187
330
1F
100
AcDbEntity
  8
0
  6
Continuous
 62
     7
100
AcDbLine
 10
141.5411611811053
 20
93.682354764336
 30
0.0
 11
138.2244444439041
 21
93.682354764336
 31
0.0
  0
LINE
  5
188
330
1F
100
AcDbEntity
  8
1
  6
DOT_CENTER
 62
     7
100
AcDbLine
 10
73.79116118110511
 20
105.4823547643361
 30
0.0
 11
74.48618191402323
 21
105.482354764336
 31
0.0
  0
LINE
  5
189
330
1F
100
AcDbEntity
  8
1
  6
DOT_CENTER
 62
     7
100
AcDbLine
 10
138.2911611811053
 20
105.482354764336
 30
0.0
 11
137.5961404481871
 21
105.482354764336
 31
0.0
  0
LINE
  5
18A
330
1F
100
AcDbEntity
  8
0
  6
Continuous
 62
     7
100
AcDbLine
 10
139.3911611811053
 20
131.1823547643346
 30
0.0
 11
143.0411611811053
 21
131.1823547643346
 31
0.0
  0
LINE
  5
18B
330
1F
100
AcDbEntity
  8
0
  6
Continuous
 62
     7
100
AcDbLine
 10
68.54116118110522
 20
107.382354764336
 30
0.0
 11
68.54116118110522
 21
103.5823547643361
 31
0.0
  0
LINE
  5
18C
330
1F
100
AcDbEntity
  8
1
  6
Continuous
 62
     7
100
AcDbLine
 10
108.0
 20
9.99999999999986
 30
0.0
 11
138.0
 21
9.99999999999986
 31
0.0
  0
LINE
  5
18D
330
1F
100
AcDbEntity
  8
1
  6
Continuous
 62
     7
100
AcDbLine
 10
108.0
 20
14.99999999999989
 30
0.0
 11
138.0
 21
14.99999999999989
 31
0.0
  0
LINE
  5
18E
330
1F
100
AcDbEntity
  8
1
  6
Continuous
 62
     7
100
AcDbLine
 10
248.0
 20
20.0
 30
0.0
 11
248.0
 21
5.0
 31
0.0
  0
LINE
  5
18F
330
1F
100
AcDbEntity
  8
1
  6
Continuous
 62
     7
100
AcDbLine
 10
265.3526013774854
 20
20.0
 30
0.0
 11
265.3526013774854
 21
5.0
 31
0.0
  0
LINE
  5
190
330
1F
100
AcDbEntity
  8
1
  6
Continuous
 62
     7
100
AcDbLine
 10
138.0
 20
20.0
 30
0.0
 11
138.0
 21
5.0
 31
0.0
  0
LINE
  5
191
330
1F
100
AcDbEntity
  8
1
  6
Continuous
 62
     7
100
AcDbLine
 10
148.4999999999997
 20
210.0000000000001
 30
0.0
 11
148.4999999999997
 21
195.0000000000001
 31
0.0
  0
LINE
  5
192
330
1F
100
AcDbEntity
  8
1
  6
Continuous
 62
     7
100
AcDbLine
 10
-0.00000000000011
 20
0.0
 30
0.0
 11
297.0
 21
0.0
 31
0.0
  0
LINE
  5
193
330
1F
100
AcDbEntity
  8
1
  6
Continuous
 62
     7
100
AcDbLine
 10
-0.00000000000011
 20
210.0000000000001
 30
0.0
 11
-0.00000000000011
 21
0.0
 31
0.0
  0
LINE
  5
194
330
1F
100
AcDbEntity
  8
1
  6
Continuous
 62
     7
100
AcDbLine
 10
297.0
 20
210.0000000000001
 30
0.0
 11
-0.00000000000011
 21
210.0000000000001
 31
0.0
  0
LINE
  5
195
330
1F
100
AcDbEntity
  8
1
  6
Continuous
 62
     7
100
AcDbLine
 10
297.0
 20
0.0
 30
0.0
 11
297.0
 21
210.0000000000001
 31
0.0
  0
LINE
  5
196
330
1F
100
AcDbEntity
  8
1
  6
Continuous
 62
     7
100
AcDbLine
 10
4.99999999999977
 20
5.0
 30
0.0
 11
292.0
 21
5.0
 31
0.0
  0
LINE
  5
197
330
1F
100
AcDbEntity
  8
1
  6
Continuous
 62
     7
100
AcDbLine
 10
292.0
 20
5.0
 30
0.0
 11
292.0
 21
189.0
 31
0.0
  0
LINE
  5
198
330
1F
100
AcDbEntity
  8
1
  6
Continuous
 62
     7
100
AcDbLine
 10
292.0
 20
189.0
 30
0.0
 11
4.99999999999977
 21
189.0
 31
0.0
  0
LINE
  5
199
102
{ACAD_REACTORS
330
2B0
102
}
330
1F
100
AcDbEntity
  8
1
  6
Continuous
 62
     7
100
AcDbLine
 10
281.0096340220761
 20
10.07749983983263
 30
0.0
 11
281.0096340220761
 21
14.92250016016737
 31
0.0
  0
LINE
  5
19A
102
{ACAD_REACTORS
330
2AD
102
}
330
1F
100
AcDbEntity
  8
1
  6
Continuous
 62
     7
100
AcDbLine
 10
279.6763006887427
 20
12.5
 30
0.0
 11
279.6763006887427
 21
14.23205080756884
 31
0.0
  0
LINE
  5
19B
102
{ACAD_REACTORS
330
2AD
102
}
330
1F
100
AcDbEntity
  8
1
  6
Continuous
 62
     7
100
AcDbLine
 10
279.6763006887427
 20
14.23205080756884
 30
0.0
 11
278.8206382560401
 21
12.75
 31
0.0
  0
LINE
  5
19C
102
{ACAD_REACTORS
330
2AD
102
}
330
1F
100
AcDbEntity
  8
1
  6
Continuous
 62
     7
100
AcDbLine
 10
278.5319631214452
 20
12.75
 30
0.0
 11
277.6763006887427
 21
14.23205080756884
 31
0.0
  0
LINE
  5
19D
102
{ACAD_REACTORS
330
2AD
102
}
330
1F
100
AcDbEntity
  8
1
  6
Continuous
 62
     7
100
AcDbLine
 10
277.6763006887427
 20
14.23205080756884
 30
0.0
 11
277.6763006887427
 21
12.5
 31
0.0
  0
LINE
  5
19E
330
1F
100
AcDbEntity
  8
1
  6
Continuous
 62
     7
100
AcDbLine
 10
270.2598654136011
 20
12.64436426434133
 30
0.0
 11
278.6763006887427
 21
17.5
 31
0.0
  0
LINE
  5
19F
330
1F
100
AcDbEntity
  8
1
  6
Continuous
 62
     7
100
AcDbLine
 10
278.6763006887427
 20
17.5
 30
0.0
 11
287.0927359638841
 21
12.64436426434133
 31
0.0
  0
LINE
  5
1A0
330
1F
100
AcDbEntity
  8
1
  6
Continuous
 62
     7
100
AcDbLine
 10
287.0927359638841
 20
12.35563573565855
 30
0.0
 11
278.6763006887427
 21
7.5
 31
0.0
  0
LINE
  5
1A1
330
1F
100
AcDbEntity
  8
1
  6
Continuous
 62
     7
100
AcDbLine
 10
278.6763006887427
 20
7.5
 30
0.0
 11
270.2598654136011
 21
12.35563573565855
 31
0.0
  0
LINE
  5
1A2
102
{ACAD_REACTORS
330
2AD
102
}
330
1F
100
AcDbEntity
  8
1
  6
Continuous
 62
     7
100
AcDbLine
 10
277.0096340220759
 20
12.5
 30
0.0
 11
277.0096340220759
 21
15.73121731203457
 31
0.0
  0
LINE
  5
1A3
102
{ACAD_REACTORS
330
2AD
102
}
330
1F
100
AcDbEntity
  8
1
  6
Continuous
 62
     7
100
AcDbLine
 10
277.5040677056994
 20
15.86370041827229
 30
0.0
 11
278.6763006887427
 21
13.83333333333326
 31
0.0
  0
LINE
  5
1A4
102
{ACAD_REACTORS
330
2AD
102
}
330
1F
100
AcDbEntity
  8
1
  6
Continuous
 62
     7
100
AcDbLine
 10
277.0096340220759
 20
12.5
 30
0.0
 11
277.0096340220759
 21
10.84758507263291
 31
0.0
  0
LINE
  5
1A5
102
{ACAD_REACTORS
330
2AD
102
}
330
1F
100
AcDbEntity
  8
1
  6
Continuous
 62
     7
100
AcDbLine
 10
277.6763006887427
 20
10.84758507263291
 30
0.0
 11
277.6763006887427
 21
12.5
 31
0.0
  0
LINE
  5
1A6
102
{ACAD_REACTORS
330
2AD
102
}
330
1F
100
AcDbEntity
  8
1
  6
Continuous
 62
     7
100
AcDbLine
 10
279.6763006887427
 20
12.5
 30
0.0
 11
279.6763006887427
 21
9.3082690706018
 31
0.0
  0
LINE
  5
1A7
102
{ACAD_REACTORS
330
2AD
102
}
330
1F
100
AcDbEntity
  8
1
  6
Continuous
 62
     7
100
AcDbLine
 10
280.3429673554093
 20
9.3082690706018
 30
0.0
 11
280.3429673554093
 21
15.73121731203457
 31
0.0
  0
LINE
  5
1A8
102
{ACAD_REACTORS
330
2AD
102
}
330
1F
100
AcDbEntity
  8
1
  6
Continuous
 62
     7
100
AcDbLine
 10
279.848533671786
 20
15.86370041827229
 30
0.0
 11
278.6763006887427
 21
13.83333333333326
 31
0.0
  0
LINE
  5
1A9
102
{ACAD_REACTORS
330
2AE
102
}
330
1F
100
AcDbEntity
  8
1
  6
Continuous
 62
     7
100
AcDbLine
 10
275.6763006887427
 20
10.27002114803258
 30
0.0
 11
275.6763006887427
 21
14.92250016016737
 31
0.0
  0
LINE
  5
1AA
102
{ACAD_REACTORS
330
2AE
102
}
330
1F
100
AcDbEntity
  8
1
  6
Continuous
 62
     7
100
AcDbLine
 10
276.3429673554093
 20
14.92250016016737
 30
0.0
 11
276.3429673554093
 21
10.2700211480327
 31
0.0
  0
LINE
  5
1AB
102
{ACAD_REACTORS
330
2AE
102
}
330
1F
100
AcDbEntity
  8
1
  6
Continuous
 62
     7
100
AcDbLine
 10
276.3429673554093
 20
10.2700211480327
 30
0.0
 11
278.5095415065725
 21
9.0200745223616
 31
0.0
  0
LINE
  5
1AC
102
{ACAD_REACTORS
330
2AE
102
}
330
1F
100
AcDbEntity
  8
1
  6
Continuous
 62
     7
100
AcDbLine
 10
278.1763932042461
 20
8.44261746499581
 30
0.0
 11
276.009819053083
 21
9.69256409066691
 31
0.0
  0
LINE
  5
1AD
102
{ACAD_REACTORS
330
2AF
102
}
330
1F
100
AcDbEntity
  8
1
  6
Continuous
 62
     7
100
AcDbLine
 10
275.0096340220759
 20
14.15326939093666
 30
0.0
 11
275.0096340220759
 21
11.0392519172633
 31
0.0
  0
LINE
  5
1AE
102
{ACAD_REACTORS
330
2AF
102
}
330
1F
100
AcDbEntity
  8
1
  6
Continuous
 62
     7
100
AcDbLine
 10
275.0096340220759
 20
11.0392519172633
 30
0.0
 11
275.0096340220759
 21
10.84673060906323
 31
0.0
  0
LINE
  5
1AF
102
{ACAD_REACTORS
330
2AF
102
}
330
1F
100
AcDbEntity
  8
1
  6
Continuous
 62
     7
100
AcDbLine
 10
274.3429673554093
 20
10.84673060906323
 30
0.0
 11
274.3429673554093
 21
14.15326939093666
 31
0.0
  0
LINE
  5
1B0
102
{ACAD_REACTORS
330
2B0
102
}
330
1F
100
AcDbEntity
  8
1
  6
Continuous
 62
     7
100
AcDbLine
 10
281.5095415065725
 20
15.21122868885027
 30
0.0
 11
282.8428748399058
 21
14.44199791961944
 31
0.0
  0
LINE
  5
1B1
102
{ACAD_REACTORS
330
2B0
102
}
330
1F
100
AcDbEntity
  8
1
  6
Continuous
 62
     7
100
AcDbLine
 10
282.5097265375795
 20
13.86454086225376
 30
0.0
 11
281.6763006887427
 21
14.34536346735195
 31
0.0
  0
LINE
  5
1B2
102
{ACAD_REACTORS
330
2B0
102
}
330
1F
100
AcDbEntity
  8
1
  6
Continuous
 62
     7
100
AcDbLine
 10
281.6763006887427
 20
14.34536346735195
 30
0.0
 11
281.6763006887427
 21
12.83333333333326
 31
0.0
  0
LINE
  5
1B3
102
{ACAD_REACTORS
330
2B0
102
}
330
1F
100
AcDbEntity
  8
1
  6
Continuous
 62
     7
100
AcDbLine
 10
281.6763006887427
 20
12.83333333333326
 30
0.0
 11
282.6763006887427
 21
12.83333333333326
 31
0.0
  0
LINE
  5
1B4
102
{ACAD_REACTORS
330
2B0
102
}
330
1F
100
AcDbEntity
  8
1
  6
Continuous
 62
     7
100
AcDbLine
 10
282.6763006887427
 20
12.16666666666663
 30
0.0
 11
281.6763006887427
 21
12.16666666666663
 31
0.0
  0
LINE
  5
1B5
102
{ACAD_REACTORS
330
2B0
102
}
330
1F
100
AcDbEntity
  8
1
  6
Continuous
 62
     7
100
AcDbLine
 10
281.6763006887427
 20
12.16666666666663
 30
0.0
 11
281.6763006887427
 21
10.65463653264794
 31
0.0
  0
LINE
  5
1B6
102
{ACAD_REACTORS
330
2B0
102
}
330
1F
100
AcDbEntity
  8
1
  6
Continuous
 62
     7
100
AcDbLine
 10
281.6763006887427
 20
10.65463653264794
 30
0.0
 11
282.5097265375795
 21
11.13545913774624
 31
0.0
  0
LINE
  5
1B7
102
{ACAD_REACTORS
330
2B0
102
}
330
1F
100
AcDbEntity
  8
1
  6
Continuous
 62
     7
100
AcDbLine
 10
282.8428748399058
 20
10.55800208038033
 30
0.0
 11
281.5095415065725
 21
9.78877131114973
 31
0.0
  0
LINE
  5
1B8
330
1F
100
AcDbEntity
  8
1
  6
Continuous
 62
     7
100
AcDbLine
 10
108.0
 20
25.0
 30
0.0
 11
292.0
 21
25.0
 31
0.0
  0
LINE
  5
1B9
330
1F
100
AcDbEntity
  8
1
  6
Continuous
 62
     7
100
AcDbLine
 10
115.0
 20
20.0
 30
0.0
 11
115.0
 21
25.0
 31
0.0
  0
LINE
  5
1BA
330
1F
100
AcDbEntity
  8
1
  6
Continuous
 62
     7
100
AcDbLine
 10
133.0000000000001
 20
20.0
 30
0.0
 11
133.0000000000001
 21
25.0
 31
0.0
  0
LINE
  5
1BB
330
1F
100
AcDbEntity
  8
1
  6
Continuous
 62
     7
100
AcDbLine
 10
108.0
 20
30.0
 30
0.0
 11
292.0
 21
30.0
 31
0.0
  0
LINE
  5
1BC
330
1F
100
AcDbEntity
  8
1
  6
Continuous
 62
     7
100
AcDbLine
 10
115.0
 20
25.0
 30
0.0
 11
115.0
 21
30.0
 31
0.0
  0
LINE
  5
1BD
330
1F
100
AcDbEntity
  8
1
  6
Continuous
 62
     7
100
AcDbLine
 10
133.0000000000001
 20
25.0
 30
0.0
 11
133.0000000000001
 21
30.0
 31
0.0
  0
LINE
  5
1BE
330
1F
100
AcDbEntity
  8
1
  6
Continuous
 62
     7
100
AcDbLine
 10
108.0
 20
35.0
 30
0.0
 11
292.0
 21
35.0
 31
0.0
  0
LINE
  5
1BF
330
1F
100
AcDbEntity
  8
1
  6
Continuous
 62
     7
100
AcDbLine
 10
115.0
 20
30.0
 30
0.0
 11
115.0
 21
35.0
 31
0.0
  0
LINE
  5
1C0
330
1F
100
AcDbEntity
  8
1
  6
Continuous
 62
     7
100
AcDbLine
 10
133.0000000000001
 20
30.0
 30
0.0
 11
133.0000000000001
 21
35.0
 31
0.0
  0
LINE
  5
1C1
330
1F
100
AcDbEntity
  8
1
  6
Continuous
 62
     7
100
AcDbLine
 10
108.0
 20
40.0
 30
0.0
 11
292.0
 21
40.0
 31
0.0
  0
LINE
  5
1C2
330
1F
100
AcDbEntity
  8
1
  6
Continuous
 62
     7
100
AcDbLine
 10
115.0
 20
35.0
 30
0.0
 11
115.0
 21
40.0
 31
0.0
  0
LINE
  5
1C3
330
1F
100
AcDbEntity
  8
1
  6
Continuous
 62
     7
100
AcDbLine
 10
133.0000000000001
 20
35.0
 30
0.0
 11
133.0000000000001
 21
40.0
 31
0.0
  0
LINE
  5
1C4
330
1F
100
AcDbEntity
  8
1
  6
Continuous
 62
     7
100
AcDbLine
 10
4.99999999999977
 20
189.0
 30
0.0
 11
4.99999999999977
 21
5.0
 31
0.0
  0
LINE
  5
1C5
330
1F
100
AcDbEntity
  8
1
  6
Continuous
 62
     7
100
AcDbLine
 10
108.0
 20
20.0
 30
0.0
 11
292.0
 21
20.0
 31
0.0
  0
LINE
  5
1C6
330
1F
100
AcDbEntity
  8
1
  6
Continuous
 62
     7
100
AcDbLine
 10
108.0
 20
4.99999999999989
 30
0.0
 11
108.0
 21
40.0
 31
0.0
  0
ARC
  5
1C7
330
1F
100
AcDbEntity
  8
0
  6
Continuous
 62
     7
100
AcDbCircle
 10
210.4411783252619
 20
105.482354764336
 30
0.0
 40
6.699999999999717
100
AcDbArc
 50
12.97800248570671
 51
36.45729151707673
  0
ARC
  5
1C8
330
1F
100
AcDbEntity
  8
0
  6
Continuous
 62
     7
100
AcDbCircle
 10
216.2321384716212
 20
109.7607634151396
 30
0.0
 40
0.5000000000000422
100
AcDbArc
 50
133.000000000004
 51
216.4572915170818
  0
ARC
  5
1C9
330
1F
100
AcDbEntity
  8
0
  6
Continuous
 62
     7
100
AcDbCircle
 10
215.4411783252634
 20
118.4823547643354
 30
0.0
 40
10.20000000000005
100
AcDbArc
 50
313.0000000000006
 51
89.99999999999042
  0
ARC
  5
1CA
330
1F
100
AcDbEntity
  8
0
  6
Continuous
 62
     7
100
AcDbCircle
 10
207.4271161068752
 20
126.2770594113948
 30
0.0
 40
2.999999999999957
100
AcDbArc
 50
227.4649206658564
 51
266.5952254413252
  0
ARC
  5
1CB
330
1F
100
AcDbEntity
  8
0
  6
Continuous
 62
     7
100
AcDbCircle
 10
210.4411783252619
 20
105.482354764336
 30
0.0
 40
6.700000000000395
100
AcDbArc
 50
132.999999999994
 51
312.9999999999997
  0
ARC
  5
1CC
330
1F
100
AcDbEntity
  8
0
  6
Continuous
 62
     7
100
AcDbCircle
 10
232.4411783252705
 20
124.182354764332
 30
0.0
 40
6.900000000000205
100
AcDbArc
 50
269.999999999932
 51
273.7809280823625
  0
ARC
  5
1CD
330
1F
100
AcDbEntity
  8
0
  6
Continuous
 62
     7
100
AcDbCircle
 10
217.4572641044181
 20
107.0993087956885
 30
0.0
 40
0.4999999999992537
100
AcDbArc
 50
192.9780024856645
 51
313.0000000006208
  0
ARC
  5
1CE
330
1F
100
AcDbEntity
  8
0
  6
Continuous
 62
     7
100
AcDbCircle
 10
232.4411783252634
 20
124.1823547643318
 30
0.0
 40
6.999999999999742
100
AcDbArc
 50
337.999999999992
 51
345.9999999999923
  0
ARC
  5
1CF
330
1F
100
AcDbEntity
  8
0
  6
Continuous
 62
     7
100
AcDbCircle
 10
232.4411783252634
 20
124.1823547643318
 30
0.0
 40
6.999999999999831
100
AcDbArc
 50
25.99999999999479
 51
33.9999999999944
  0
ARC
  5
1D0
330
1F
100
AcDbEntity
  8
0
  6
Continuous
 62
     7
100
AcDbCircle
 10
232.4411783252619
 20
124.1823547643323
 30
0.0
 40
6.899999999999666
100
AcDbArc
 50
81.99999999998224
 51
83.42611475024232
  0
ARC
  5
1D1
330
1F
100
AcDbEntity
  8
0
  6
Continuous
 62
     7
100
AcDbCircle
 10
232.4411783252634
 20
124.1823547643318
 30
0.0
 40
6.999999999999767
100
AcDbArc
 50
17.99999999999338
 51
25.99999999999479
  0
ARC
  5
1D2
330
1F
100
AcDbEntity
  8
0
  6
Continuous
 62
     7
100
AcDbCircle
 10
232.4411783252634
 20
124.1823547643318
 30
0.0
 40
6.999999999999839
100
AcDbArc
 50
41.99999999999448
 51
49.99999999999569
  0
ARC
  5
1D3
330
1F
100
AcDbEntity
  8
0
  6
Continuous
 62
     7
100
AcDbCircle
 10
232.4411783252634
 20
124.1823547643318
 30
0.0
 40
6.999999999999992
100
AcDbArc
 50
305.9999999999918
 51
313.9999999999918
  0
ARC
  5
1D4
330
1F
100
AcDbEntity
  8
0
  6
Continuous
 62
     7
100
AcDbCircle
 10
232.4411783252634
 20
124.1823547643318
 30
0.0
 40
6.89999999999988
100
AcDbArc
 50
297.9999999999908
 51
305.9999999999921
  0
ARC
  5
1D5
330
1F
100
AcDbEntity
  8
0
  6
Continuous
 62
     7
100
AcDbCircle
 10
232.4411783252605
 20
124.1823547643289
 30
0.0
 40
6.900000000000392
100
AcDbArc
 50
314.000000000026
 51
322.000000000025
  0
ARC
  5
1D6
330
1F
100
AcDbEntity
  8
0
  6
Continuous
 62
     7
100
AcDbCircle
 10
232.44117832516
 20
124.1823547643248
 30
0.0
 40
6.900000000000347
100
AcDbArc
 50
273.780928083282
 51
274.0000000008517
  0
ARC
  5
1D7
330
1F
100
AcDbEntity
  8
0
  6
Continuous
 62
     7
100
AcDbCircle
 10
232.4411783252634
 20
124.1823547643318
 30
0.0
 40
7.000000000000074
100
AcDbArc
 50
273.9999999999927
 51
281.9999999999923
  0
ARC
  5
1D8
330
1F
100
AcDbEntity
  8
0
  6
Continuous
 62
     7
100
AcDbCircle
 10
232.4411783252653
 20
124.1823547643302
 30
0.0
 40
6.900000000000215
100
AcDbArc
 50
50.00000000001677
 51
58.00000000001568
  0
ARC
  5
1D9
330
1F
100
AcDbEntity
  8
0
  6
Continuous
 62
     7
100
AcDbCircle
 10
232.441178325275
 20
124.1823547643256
 30
0.0
 40
7.000000000000902
100
AcDbArc
 50
58.00000000010149
 51
66.00000000010189
  0
ARC
  5
1DA
330
1F
100
AcDbEntity
  8
0
  6
Continuous
 62
     7
100
AcDbCircle
 10
232.4411783252634
 20
124.1823547643318
 30
0.0
 40
6.900000000000047
100
AcDbArc
 50
281.999999999992
 51
289.9999999999935
  0
ARC
  5
1DB
330
1F
100
AcDbEntity
  8
0
  6
Continuous
 62
     7
100
AcDbCircle
 10
232.4411783252634
 20
124.1823547643318
 30
0.0
 40
7.000000000000027
100
AcDbArc
 50
289.9999999999923
 51
297.9999999999923
  0
ARC
  5
1DC
330
1F
100
AcDbEntity
  8
0
  6
Continuous
 62
     7
100
AcDbCircle
 10
232.4411783252942
 20
124.1823547643252
 30
0.0
 40
7.000000000002209
100
AcDbArc
 50
74.00000000025388
 51
82.00000000025199
  0
ARC
  5
1DD
330
1F
100
AcDbEntity
  8
0
  6
Continuous
 62
     7
100
AcDbCircle
 10
232.4411783252619
 20
124.1823547643323
 30
0.0
 40
6.900000000000246
100
AcDbArc
 50
65.99999999998198
 51
73.99999999998295
  0
ARC
  5
1DE
330
1F
100
AcDbEntity
  8
0
  6
Continuous
 62
     7
100
AcDbCircle
 10
232.4411783252634
 20
124.1823547643318
 30
0.0
 40
6.899999999999909
100
AcDbArc
 50
1.99999999999366
 51
9.99999999999356
  0
ARC
  5
1DF
330
1F
100
AcDbEntity
  8
0
  6
Continuous
 62
     7
100
AcDbCircle
 10
232.4411783252634
 20
124.1823547643318
 30
0.0
 40
6.999999999999813
100
AcDbArc
 50
9.99999999999349
 51
17.99999999999338
  0
ARC
  5
1E0
330
1F
100
AcDbEntity
  8
0
  6
Continuous
 62
     7
100
AcDbCircle
 10
232.4411783252634
 20
124.1823547643318
 30
0.0
 40
6.999999999999791
100
AcDbArc
 50
353.999999999993
 51
1.99999999999343
  0
ARC
  5
1E1
330
1F
100
AcDbEntity
  8
0
  6
Continuous
 62
     7
100
AcDbCircle
 10
207.9829207557697
 20
127.1823547643345
 30
0.0
 40
3.999999999999986
100
AcDbArc
 50
90.0
 51
203.5781784785146
  0
ARC
  5
1E2
330
1F
100
AcDbEntity
  8
0
  6
Continuous
 62
     7
100
AcDbCircle
 10
232.4411783252634
 20
124.1823547643318
 30
0.0
 40
6.899999999999899
100
AcDbArc
 50
17.99999999999381
 51
25.99999999999506
  0
ARC
  5
1E3
330
1F
100
AcDbEntity
  8
0
  6
Continuous
 62
     7
100
AcDbCircle
 10
232.4411783252634
 20
124.1823547643318
 30
0.0
 40
6.899999999999736
100
AcDbArc
 50
33.99999999999491
 51
41.99999999999406
  0
ARC
  5
1E4
330
1F
100
AcDbEntity
  8
0
  6
Continuous
 62
     7
100
AcDbCircle
 10
207.9411783252398
 20
127.1323547643342
 30
0.0
 40
1.550000000000296
100
AcDbArc
 50
90.0
 51
269.9999999999927
  0
ARC
  5
1E5
330
1F
100
AcDbEntity
  8
0
  6
Continuous
 62
     7
100
AcDbCircle
 10
210.4411783252639
 20
121.7823547643366
 30
0.0
 40
1.5
100
AcDbArc
 50
0.0
 51
90.0
  0
ARC
  5
1E6
330
1F
100
AcDbEntity
  8
0
  6
Continuous
 62
     7
100
AcDbCircle
 10
232.4411783252634
 20
124.1823547643318
 30
0.0
 40
6.899999999999829
100
AcDbArc
 50
345.9999999999928
 51
353.9999999999933
  0
ARC
  5
1E7
330
1F
100
AcDbEntity
  8
0
  6
Continuous
 62
     7
100
AcDbCircle
 10
232.4411783252634
 20
124.1823547643318
 30
0.0
 40
6.999999999999648
100
AcDbArc
 50
345.9999999999923
 51
353.999999999993
  0
ARC
  5
1E8
330
1F
100
AcDbEntity
  8
0
  6
Continuous
 62
     7
100
AcDbCircle
 10
208.4411783252644
 20
127.382354764337
 30
0.0
 40
4.500000000000147
100
AcDbArc
 50
203.5781784785135
 51
227.4649206658568
  0
ARC
  5
1E9
330
1F
100
AcDbEntity
  8
0
  6
Continuous
 62
     7
100
AcDbCircle
 10
232.4411783252634
 20
124.1823547643305
 30
0.0
 40
6.999999999999966
100
AcDbArc
 50
2.00000000000413
 51
10.00000000000403
  0
ARC
  5
1EA
330
1F
100
AcDbEntity
  8
0
  6
Continuous
 62
     7
100
AcDbCircle
 10
214.4411783252634
 20
118.4823547643355
 30
0.0
 40
7.099999999997351
100
AcDbArc
 50
312.9999999999998
 51
89.99999999999358
  0
ARC
  5
1EB
330
1F
100
AcDbEntity
  8
0
  6
Continuous
 62
     7
100
AcDbCircle
 10
232.4411783252634
 20
124.1823547643318
 30
0.0
 40
6.899999999999823
100
AcDbArc
 50
329.9999999999924
 51
337.9999999999918
  0
ARC
  5
1EC
330
1F
100
AcDbEntity
  8
0
  6
Continuous
 62
     7
100
AcDbCircle
 10
232.4411783252634
 20
124.1823547643318
 30
0.0
 40
6.999999999999768
100
AcDbArc
 50
321.9999999999923
 51
329.999999999993
  0
ARC
  5
1ED
330
1F
100
AcDbEntity
  8
0
  6
Continuous
 62
     7
100
AcDbCircle
 10
232.4411783252634
 20
124.1823547643318
 30
0.0
 40
6.999999999999945
100
AcDbArc
 50
329.999999999993
 51
337.999999999992
  0
ARC
  5
1EE
330
1F
100
AcDbEntity
  8
0
  6
Continuous
 62
     7
100
AcDbCircle
 10
224.3374947721689
 20
92.682354764336
 30
0.0
 40
0.9999999999999208
100
AcDbArc
 50
0.50000000000299
 51
90.0
  0
ARC
  5
1EF
330
1F
100
AcDbEntity
  8
0
  6
Continuous
 62
     7
100
AcDbCircle
 10
196.5448618783562
 20
92.682354764336
 30
0.0
 40
1.0
100
AcDbArc
 50
90.0
 51
179.499999999997
  0
ARC
  5
1F0
330
1F
100
AcDbEntity
  8
0
  6
Continuous
 62
     7
100
AcDbCircle
 10
239.9411783252633
 20
127.1823547643313
 30
0.0
 40
0.5
100
AcDbArc
 50
270.0
 51
0.0
  0
ARC
  5
1F1
330
1F
100
AcDbEntity
  8
0
  6
Continuous
 62
     7
100
AcDbCircle
 10
239.9411783252633
 20
128.6823547643313
 30
0.0
 40
0.5
100
AcDbArc
 50
359.9999999999642
 51
90.0
  0
ARC
  5
1F2
330
1F
100
AcDbEntity
  8
1
  6
DASHED
 62
     7
100
AcDbCircle
 10
210.4411783252619
 20
105.482354764336
 30
0.0
 40
38.02985478255772
100
AcDbArc
 50
0.0
 51
57.9999999999999
  0
ARC
  5
1F3
330
1F
100
AcDbEntity
  8
1
  6
DASHED
 62
     7
100
AcDbCircle
 10
210.4411783252619
 20
105.482354764336
 30
0.0
 40
38.02985478255778
100
AcDbArc
 50
350.8496906002917
 51
0.0
  0
ARC
  5
1F4
330
1F
100
AcDbEntity
  8
0
  6
Continuous
 62
     7
100
AcDbCircle
 10
113.2411611811052
 20
120.2323547643338
 30
0.0
 40
0.3000000000000114
100
AcDbArc
 50
270.0
 51
0.0
  0
ARC
  5
1F5
330
1F
100
AcDbEntity
  8
0
  6
Continuous
 62
     7
100
AcDbCircle
 10
107.641161181105
 20
124.6168680375515
 30
0.0
 40
0.2000000000002261
100
AcDbArc
 50
60.01836063079573
 51
180.0
  0
ARC
  5
1F6
330
1F
100
AcDbEntity
  8
0
  6
Continuous
 62
     7
100
AcDbCircle
 10
108.4411611815266
 20
124.1595842962963
 30
0.0
 40
0.1999999999999013
100
AcDbArc
 50
240.018360773191
 51
60.01836077315584
  0
ARC
  5
1F7
330
1F
100
AcDbEntity
  8
0
  6
Continuous
 62
     7
100
AcDbCircle
 10
106.8411611811051
 20
125.0741517785637
 30
0.0
 40
0.1999999999999034
100
AcDbArc
 50
0.0
 51
150.0000001034162
  0
ARC
  5
1F8
330
1F
100
AcDbEntity
  8
0
  6
Continuous
 62
     7
100
AcDbCircle
 10
100.9412722613691
 20
123.3073547643307
 30
0.0
 40
0.100111080262136
100
AcDbArc
 50
119.7519359337666
 51
240.2480640648947
  0
ARC
  5
1F9
330
1F
100
AcDbEntity
  8
0
  6
Continuous
 62
     7
100
AcDbCircle
 10
105.8411611810952
 20
121.19758737404
 30
0.0
 40
0.1999999999999227
100
AcDbArc
 50
240.0183606348487
 51
60.01836063479934
  0
ARC
  5
1FA
330
1F
100
AcDbEntity
  8
0
  6
Continuous
 62
     7
100
AcDbCircle
 10
104.641161181105
 20
122.1138622510296
 30
0.0
 40
0.4000000000000057
100
AcDbArc
 50
180.0000000000428
 51
240.0183606310564
  0
ARC
  5
1FB
330
1F
100
AcDbEntity
  8
0
  6
Continuous
 62
     7
100
AcDbCircle
 10
103.641161181105
 20
122.4550914365686
 30
0.0
 40
0.2000000000002018
100
AcDbArc
 50
179.9999999999104
 51
0.0
  0
ARC
  5
1FC
330
1F
100
AcDbEntity
  8
0
  6
Continuous
 62
     7
100
AcDbCircle
 10
105.241161181105
 20
122.4550914365686
 30
0.0
 40
0.2000000000003013
100
AcDbArc
 50
180.0
 51
0.0
  0
ARC
  5
1FD
330
1F
100
AcDbEntity
  8
0
  6
Continuous
 62
     7
100
AcDbCircle
 10
106.041161181105
 20
123.4885111325085
 30
0.0
 40
0.0999999999999258
100
AcDbArc
 50
210.0000000000979
 51
330.0000000001112
  0
ARC
  5
1FE
330
1F
100
AcDbEntity
  8
0
  6
Continuous
 62
     7
100
AcDbCircle
 10
106.0411611811089
 20
126.1073547643297
 30
0.0
 40
0.2000000000009716
100
AcDbArc
 50
60.24751292524843
 51
119.7519359350553
  0
ARC
  5
1FF
330
1F
100
AcDbEntity
  8
0
  6
Continuous
 62
     7
100
AcDbCircle
 10
104.441161181105
 20
124.6211565536348
 30
0.0
 40
0.2000000000000028
100
AcDbArc
 50
0.0
 51
179.9999999995725
  0
ARC
  5
200
330
1F
100
AcDbEntity
  8
0
  6
Continuous
 62
     7
100
AcDbCircle
 10
103.641161181105
 20
124.1596180920964
 30
0.0
 40
0.2000000000000881
100
AcDbArc
 50
0.0
 51
180.0
  0
ARC
  5
201
330
1F
100
AcDbEntity
  8
0
  6
Continuous
 62
     7
100
AcDbCircle
 10
105.2411611811039
 20
125.0741517785634
 30
0.0
 40
0.1999999999987236
100
AcDbArc
 50
29.99999999988017
 51
179.9999999999145
  0
ARC
  5
202
330
1F
100
AcDbEntity
  8
0
  6
Continuous
 62
     7
100
AcDbCircle
 10
108.4411611806802
 20
122.4550914363247
 30
0.0
 40
0.2000000000000334
100
AcDbArc
 50
299.9816395084749
 51
119.9816395084586
  0
ARC
  5
203
330
1F
100
AcDbEntity
  8
0
  6
Continuous
 62
     7
100
AcDbCircle
 10
107.641161181105
 20
121.9978414911145
 30
0.0
 40
0.2000000000000028
100
AcDbArc
 50
180.000000000114
 51
299.9816393662278
  0
ARC
  5
204
330
1F
100
AcDbEntity
  8
0
  6
Continuous
 62
     7
100
AcDbCircle
 10
106.8411611811051
 20
121.5405577500922
 30
0.0
 40
0.2000000000003865
100
AcDbArc
 50
180.0000000006595
 51
0.00000000062695
  0
ARC
  5
205
330
1F
100
AcDbEntity
  8
0
  6
Continuous
 62
     7
100
AcDbCircle
 10
111.141161181105
 20
123.3073547643307
 30
0.0
 40
0.1000000000017086
100
AcDbArc
 50
299.7524870764941
 51
60.24751292490266
  0
ARC
  5
206
330
1F
100
AcDbEntity
  8
0
  6
Continuous
 62
     7
100
AcDbCircle
 10
108.441161181105
 20
123.307354764333
 30
0.0
 40
0.1999999999998039
100
AcDbArc
 50
270.0
 51
90.0
  0
ARC
  5
207
330
1F
100
AcDbEntity
  8
0
  6
Continuous
 62
     7
100
AcDbCircle
 10
106.0411611811089
 20
120.5073547643331
 30
0.0
 40
0.2000000000019631
100
AcDbArc
 50
240.2480640645842
 51
299.7524870752499
  0
ARC
  5
208
330
1F
100
AcDbEntity
  8
0
  6
Continuous
 62
     7
100
AcDbCircle
 10
98.84116118108994
 20
120.2323547643491
 30
0.0
 40
0.3000000000154159
100
AcDbArc
 50
180.0000000029393
 51
270.0000000029312
  0
ARC
  5
209
330
1F
100
AcDbEntity
  8
0
  6
Continuous
 62
     7
100
AcDbCircle
 10
69.04116118110522
 20
99.28235476433571
 30
0.0
 40
0.5
100
AcDbArc
 50
180.0
 51
270.0
  0
ARC
  5
20A
330
1F
100
AcDbEntity
  8
0
  6
Continuous
 62
     7
100
AcDbCircle
 10
69.04116118110522
 20
130.6823547643346
 30
0.0
 40
0.5
100
AcDbArc
 50
90.0
 51
180.0
  0
ARC
  5
20B
330
1F
100
AcDbEntity
  8
0
  6
Continuous
 62
     7
100
AcDbCircle
 10
143.0411611811053
 20
130.6823547643346
 30
0.0
 40
0.5
100
AcDbArc
 50
0.0
 51
90.0
  0
ARC
  5
20C
330
1F
100
AcDbEntity
  8
0
  6
Continuous
 62
     7
100
AcDbCircle
 10
143.0411611811053
 20
99.28235476433571
 30
0.0
 40
0.5
100
AcDbArc
 50
270.0
 51
0.0
  0
ARC
  5
20D
330
1F
100
AcDbEntity
  8
0
  6
Continuous
 62
     7
100
AcDbCircle
 10
73.85787791830654
 20
94.182354764336
 30
0.0
 40
0.5
100
AcDbArc
 50
269.999999999987
 51
359.4999999999986
  0
ARC
  5
20E
330
1F
100
AcDbEntity
  8
0
  6
Continuous
 62
     7
100
AcDbCircle
 10
66.54116118110534
 20
92.682354764336
 30
0.0
 40
1.0
100
AcDbArc
 50
90.00000000000651
 51
180.0
  0
ARC
  5
20F
330
1F
100
AcDbEntity
  8
0
  6
Continuous
 62
     7
100
AcDbCircle
 10
145.5411611811053
 20
92.682354764336
 30
0.0
 40
1.0
100
AcDbArc
 50
0.0
 51
90.0
  0
ARC
  5
210
330
1F
100
AcDbEntity
  8
0
  6
Continuous
 62
     7
100
AcDbCircle
 10
138.2244444439043
 20
94.182354764336
 30
0.0
 40
0.5000000000002303
100
AcDbArc
 50
180.5000000000011
 51
269.9999999999772
  0
ARC
  5
211
102
{ACAD_REACTORS
330
2AD
102
}
330
1F
100
AcDbEntity
  8
1
  6
Continuous
 62
     7
100
AcDbCircle
 10
277.2746002345513
 20
15.73121731203457
 30
0.0
 40
0.2649662124752854
100
AcDbArc
 50
30.00000000001921
 51
180.0
  0
ARC
  5
212
102
{ACAD_REACTORS
330
2AD
102
}
330
1F
100
AcDbEntity
  8
1
  6
Continuous
 62
     7
100
AcDbCircle
 10
277.3429673554093
 20
10.84758507263291
 30
0.0
 40
0.3333333333334281
100
AcDbArc
 50
180.0
 51
0.0
  0
ARC
  5
213
102
{ACAD_REACTORS
330
2AD
102
}
330
1F
100
AcDbEntity
  8
1
  6
Continuous
 62
     7
100
AcDbCircle
 10
280.0096340220761
 20
9.3082690706018
 30
0.0
 40
0.3333333333334281
100
AcDbArc
 50
180.0
 51
0.0
  0
ARC
  5
214
102
{ACAD_REACTORS
330
2AD
102
}
330
1F
100
AcDbEntity
  8
1
  6
Continuous
 62
     7
100
AcDbCircle
 10
280.078001142934
 20
15.73121731203457
 30
0.0
 40
0.2649662124753149
100
AcDbArc
 50
0.0
 51
149.9999999999685
  0
ARC
  5
215
102
{ACAD_REACTORS
330
2AE
102
}
330
1F
100
AcDbEntity
  8
1
  6
Continuous
 62
     7
100
AcDbCircle
 10
276.0096340220759
 20
14.92250016016737
 30
0.0
 40
0.3333333333334281
100
AcDbArc
 50
0.0
 51
180.0
  0
ARC
  5
216
102
{ACAD_REACTORS
330
2AE
102
}
330
1F
100
AcDbEntity
  8
1
  6
Continuous
 62
     7
100
AcDbCircle
 10
278.3429673554093
 20
8.7313459936787
 30
0.0
 40
0.3333333333333709
100
AcDbArc
 50
240.0183606311493
 51
60.01836063115783
  0
ARC
  5
217
102
{ACAD_REACTORS
330
2AF
102
}
330
1F
100
AcDbEntity
  8
1
  6
Continuous
 62
     7
100
AcDbCircle
 10
274.6763006887427
 20
14.15326939093666
 30
0.0
 40
0.3333333333332007
100
AcDbArc
 50
0.0
 51
180.0
  0
ARC
  5
218
102
{ACAD_REACTORS
330
2AF
102
}
330
1F
100
AcDbEntity
  8
1
  6
Continuous
 62
     7
100
AcDbCircle
 10
274.6763006887427
 20
10.84673060906323
 30
0.0
 40
0.3333333333333712
100
AcDbArc
 50
180.0
 51
0.0
  0
ARC
  5
219
102
{ACAD_REACTORS
330
2B0
102
}
330
1F
100
AcDbEntity
  8
1
  6
Continuous
 62
     7
100
AcDbCircle
 10
282.6763006887427
 20
14.15326939093666
 30
0.0
 40
0.3333333333333471
100
AcDbArc
 50
240.0183606311583
 51
60.01836063115638
  0
ARC
  5
21A
102
{ACAD_REACTORS
330
2B0
102
}
330
1F
100
AcDbEntity
  8
1
  6
Continuous
 62
     7
100
AcDbCircle
 10
282.6763006887427
 20
12.5
 30
0.0
 40
0.3333333333333695
100
AcDbArc
 50
270.0
 51
90.0
  0
ARC
  5
21B
102
{ACAD_REACTORS
330
2B0
102
}
330
1F
100
AcDbEntity
  8
1
  6
Continuous
 62
     7
100
AcDbCircle
 10
282.6763006887427
 20
10.84673060906323
 30
0.0
 40
0.3333333333333172
100
AcDbArc
 50
299.9816393688334
 51
119.9816393688323
  0
CIRCLE
  5
21C
330
1F
100
AcDbEntity
  8
0
  6
Continuous
 62
     7
100
AcDbCircle
 10
210.4411783252619
 20
105.482354764336
 30
0.0
 40
2.499999999999966
  0
CIRCLE
  5
21D
330
1F
100
AcDbEntity
  8
0
  6
Continuous
 62
     7
100
AcDbCircle
 10
210.4411783252619
 20
105.482354764336
 30
0.0
 40
4.200000000000074
  0
SPLINE
  5
21E
330
1F
100
AcDbEntity
  8
0
  6
Continuous
 62
     7
100
AcDbSpline
210
0.0
220
0.0
230
1.0
 70
     8
 71
     3
 72
    11
 73
     7
 74
     5
 42
0.000000001
 43
0.0000000001
 44
0.00000001
 40
0.0
 40
0.0
 40
0.0
 40
0.0
 40
0.1126067740733793
 40
0.2241631912646155
 40
0.3337510563915306
 40
0.4407092467489819
 40
0.4407092467489819
 40
0.4407092467489819
 40
0.4407092467489819
 10
232.8241224526988
 20
131.1823547643345
 30
0.0
 10
232.8617180624449
 20
131.1805386870221
 30
0.0
 10
232.9365586016962
 20
131.1769234573355
 30
0.0
 10
233.0445394440473
 20
131.1474406561347
 30
0.0
 10
233.1452862874235
 20
131.1028300896372
 30
0.0
 10
233.2027416618471
 20
131.0587566992326
 30
0.0
 10
233.231120483859
 20
131.0369876054163
 30
0.0
 11
232.8241224526988
 21
131.1823547643345
 31
0.0
 11
232.936324985854
 21
131.1728218075683
 31
0.0
 11
233.044249051817
 21
131.1445865354953
 31
0.0
 11
233.1437792883702
 21
131.0987255214606
 31
0.0
 11
233.231120483859
 21
131.0369876054163
 31
0.0
  0
SPLINE
  5
21F
330
1F
100
AcDbEntity
  8
0
  6
Continuous
 62
     7
100
AcDbSpline
210
0.0
220
0.0
230
1.0
 70
     8
 71
     3
 72
     9
 73
     5
 74
     3
 42
0.000000001
 43
0.0000000001
 44
0.00000001
 40
0.0
 40
0.0
 40
0.0
 40
0.0
 40
0.6105709141639962
 40
1.245926453180521
 40
1.245926453180521
 40
1.245926453180521
 40
1.245926453180521
 10
129.9292410934074
 20
120.682354764333
 30
0.0
 10
130.0763108052838
 20
120.5414210119657
 30
0.0
 10
130.3764201756399
 20
120.2538326630308
 30
0.0
 10
130.7066956883039
 20
120.0014341220227
 30
0.0
 10
130.8751184583051
 20
119.8727244370534
 30
0.0
 11
129.9292410934074
 21
120.682354764333
 31
0.0
 11
130.3776947150279
 21
120.2680044404128
 31
0.0
 11
130.8751184583051
 21
119.8727244370534
 31
0.0
  0
SPLINE
  5
220
330
1F
100
AcDbEntity
  8
0
  6
Continuous
 62
     7
100
AcDbSpline
210
0.0
220
0.0
230
1.0
 70
     8
 71
     3
 72
     9
 73
     5
 74
     3
 42
0.000000001
 43
0.0000000001
 44
0.00000001
 40
0.0
 40
0.0
 40
0.0
 40
0.0
 40
0.5556047744253361
 40
1.133702377970405
 40
1.133702377970405
 40
1.133702377970405
 40
1.133702377970405
 10
129.3483272393435
 20
121.5975692697632
 30
0.0
 10
129.4583943029266
 20
121.4483557095373
 30
0.0
 10
129.6829843462608
 20
121.1438879135785
 30
0.0
 10
129.9454199185874
 20
120.8713349736449
 30
0.0
 10
130.0792410934072
 20
120.7323547643333
 30
0.0
 11
129.3483272393435
 21
121.5975692697632
 31
0.0
 11
129.6876181136953
 21
121.1575938517782
 31
0.0
 11
130.0792410934072
 21
120.7323547643333
 31
0.0
  0
SPLINE
  5
221
330
1F
100
AcDbEntity
  8
0
  6
Continuous
 62
     7
100
AcDbSpline
210
0.0
220
0.0
230
1.0
 70
     8
 71
     3
 72
     9
 73
     5
 74
     3
 42
0.000000001
 43
0.0000000001
 44
0.00000001
 40
0.0
 40
0.0
 40
0.0
 40
0.0
 40
0.6353555390164841
 40
1.245926453180535
 40
1.245926453180535
 40
1.245926453180535
 40
1.245926453180535
 10
81.20720390390579
 20
119.8727244370534
 30
0.0
 10
81.37562667390695
 20
120.0014341220227
 30
0.0
 10
81.70590218657097
 20
120.2538326630309
 30
0.0
 10
82.00601155692706
 20
120.5414210119657
 30
0.0
 10
82.15308126880353
 20
120.682354764333
 30
0.0
 11
81.20720390390579
 21
119.8727244370534
 31
0.0
 11
81.70462764718295
 21
120.2680044404128
 31
0.0
 11
82.15308126880353
 21
120.682354764333
 31
0.0
  0
SPLINE
  5
222
330
1F
100
AcDbEntity
  8
0
  6
Continuous
 62
     7
100
AcDbSpline
210
0.0
220
0.0
230
1.0
 70
     8
 71
     3
 72
     9
 73
     5
 74
     3
 42
0.000000001
 43
0.0000000001
 44
0.00000001
 40
0.0
 40
0.0
 40
0.0
 40
0.0
 40
0.5780976035453056
 40
1.133702377970734
 40
1.133702377970734
 40
1.133702377970734
 40
1.133702377970734
 10
82.00308126880344
 20
120.732354764333
 30
0.0
 10
82.1369024436233
 20
120.8713349736447
 30
0.0
 10
82.39933801594982
 20
121.1438879135785
 30
0.0
 10
82.62392805928417
 20
121.4483557095372
 30
0.0
 10
82.73399512286733
 20
121.5975692697632
 30
0.0
 11
82.00308126880344
 21
120.732354764333
 31
0.0
 11
82.39470424851544
 21
121.1575938517782
 31
0.0
 11
82.73399512286733
 21
121.5975692697632
 31
0.0
  0
SPLINE
  5
223
330
1F
100
AcDbEntity
  8
0
  6
Continuous
 62
     7
100
AcDbSpline
210
0.0
220
0.0
230
1.0
 70
     8
 71
     3
 72
     9
 73
     5
 74
     3
 42
0.000000001
 43
0.0000000001
 44
0.00000001
 40
0.0
 40
0.0
 40
0.0
 40
0.0
 40
0.5020003611218272
 40
0.992853218319472
 40
0.992853218319472
 40
0.992853218319472
 40
0.992853218319472
 10
83.24923159311464
 20
122.5130936846952
 30
0.0
 10
83.31165321971027
 20
122.6687185903771
 30
0.0
 10
83.43511030891841
 20
122.9765125754168
 30
0.0
 10
83.50447115646118
 20
123.3007900703989
 30
0.0
 10
83.5387621877245
 20
123.4611083677862
 30
0.0
 11
83.24923159311464
 21
122.5130936846952
 31
0.0
 11
83.42266700861981
 21
122.9841823385459
 31
0.0
 11
83.5387621877245
 21
123.4611083677862
 31
0.0
  0
SPLINE
  5
224
330
1F
100
AcDbEntity
  8
0
  6
Continuous
 62
     7
100
AcDbSpline
210
0.0
220
0.0
230
1.0
 70
     8
 71
     3
 72
     9
 73
     5
 74
     3
 42
0.000000001
 43
0.0000000001
 44
0.00000001
 40
0.0
 40
0.0
 40
0.0
 40
0.0
 40
0.5427464079854007
 40
1.067148448402087
 40
1.067148448402087
 40
1.067148448402087
 40
1.067148448402087
 10
82.89458807727414
 20
121.5601086104217
 30
0.0
 10
82.99513855335371
 20
121.7108650339589
 30
0.0
 10
83.19284096767284
 20
122.0072824521717
 30
0.0
 10
83.34333717077735
 20
122.3302122072413
 30
0.0
 10
83.4172917427423
 20
122.4889014951355
 30
0.0
 11
82.89458807727414
 21
121.5601086104217
 31
0.0
 11
83.18402871734762
 21
122.0192358039156
 31
0.0
 11
83.4172917427423
 21
122.4889014951355
 31
0.0
  0
SPLINE
  5
225
330
1F
100
AcDbEntity
  8
0
  6
Continuous
 62
     7
100
AcDbSpline
210
0.0
220
0.0
230
1.0
 70
     8
 71
     3
 72
     9
 73
     5
 74
     3
 42
0.000000001
 43
0.0000000001
 44
0.00000001
 40
0.0
 40
0.0
 40
0.0
 40
0.0
 40
0.5092757292344127
 40
1.033677768955826
 40
1.033677768955826
 40
1.033677768955826
 40
1.033677768955826
 10
83.59324071613781
 20
125.3978920080015
 30
0.0
 10
83.53874483822429
 20
125.5589872499245
 30
0.0
 10
83.42813444839791
 20
125.8859625148773
 30
0.0
 10
83.26618725197217
 20
126.1908162997684
 30
0.0
 10
83.18402871845211
 20
126.3454737249576
 30
0.0
 11
83.59324071613781
 21
125.3978920080015
 31
0.0
 11
83.41729174161546
 21
125.8758080333685
 31
0.0
 11
83.18402871845211
 21
126.3454737249576
 31
0.0
  0
SPLINE
  5
226
330
1F
100
AcDbEntity
  8
0
  6
Continuous
 62
     7
100
AcDbSpline
210
0.0
220
0.0
230
1.0
 70
     8
 71
     3
 72
     9
 73
     5
 74
     3
 42
0.000000001
 43
0.0000000001
 44
0.00000001
 40
0.0
 40
0.0
 40
0.0
 40
0.0
 40
0.4885929532093344
 40
0.9795576264628298
 40
0.9795576264628298
 40
0.9795576264628298
 40
0.9795576264628298
 10
128.3122712702999
 20
124.4266512412505
 30
0.0
 10
128.307387500256
 20
124.2634922469511
 30
0.0
 10
128.2975962733782
 20
123.9363822551874
 30
0.0
 10
128.3466950777536
 20
123.612825565585
 30
0.0
 10
128.3713039292845
 20
123.4506555214593
 30
0.0
 11
128.3122712702999
 21
124.4266512412505
 31
0.0
 11
128.3122712714605
 21
123.9380582874389
 31
0.0
 11
128.3713039292845
 21
123.4506555214593
 31
0.0
  0
SPLINE
  5
227
330
1F
100
AcDbEntity
  8
0
  6
Continuous
 62
     7
100
AcDbSpline
210
0.0
220
0.0
230
1.0
 70
     8
 71
     3
 72
     9
 73
     5
 74
     3
 42
0.000000001
 43
0.0000000001
 44
0.00000001
 40
0.0
 40
0.0
 40
0.0
 40
0.0
 40
0.5244020404166416
 40
1.06714844840193
 40
1.06714844840193
 40
1.06714844840193
 40
1.06714844840193
 10
128.6650306194686
 20
122.4889014951352
 30
0.0
 10
128.7389851914336
 20
122.330212207241
 30
0.0
 10
128.8894813945381
 20
122.0072824521713
 30
0.0
 10
129.0871838088572
 20
121.7108650339588
 30
0.0
 10
129.1877342849368
 20
121.5601086104216
 30
0.0
 11
128.6650306194686
 21
122.4889014951352
 31
0.0
 11
128.8982936448633
 21
122.0192358039154
 31
0.0
 11
129.1877342849368
 21
121.5601086104216
 31
0.0
  0
SPLINE
  5
228
330
1F
100
AcDbEntity
  8
0
  6
Continuous
 62
     7
100
AcDbSpline
210
0.0
220
0.0
230
1.0
 70
     8
 71
     3
 72
     9
 73
     5
 74
     3
 42
0.000000001
 43
0.0000000001
 44
0.00000001
 40
0.0
 40
0.0
 40
0.0
 40
0.0
 40
0.4908528571977612
 40
0.992853218319538
 40
0.992853218319538
 40
0.992853218319538
 40
0.992853218319538
 10
128.5435601744862
 20
123.4611083677862
 30
0.0
 10
128.5778512057496
 20
123.3007900703989
 30
0.0
 10
128.6472120532925
 20
122.9765125754168
 30
0.0
 10
128.7706691425006
 20
122.668718590377
 30
0.0
 10
128.8330907690963
 20
122.5130936846952
 30
0.0
 11
128.5435601744862
 21
123.4611083677862
 31
0.0
 11
128.659655353591
 21
122.9841823385458
 31
0.0
 11
128.8330907690963
 21
122.5130936846952
 31
0.0
  0
SPLINE
  5
229
330
1F
100
AcDbEntity
  8
0
  6
Continuous
 62
     7
100
AcDbSpline
210
0.0
220
0.0
230
1.0
 70
     8
 71
     3
 72
     9
 73
     5
 74
     3
 42
0.000000001
 43
0.0000000001
 44
0.00000001
 40
0.0
 40
0.0
 40
0.0
 40
0.0
 40
0.4908528568189515
 40
0.9748037492114887
 40
0.9748037492114887
 40
0.9748037492114887
 40
0.9748037492114887
 10
128.6596553524637
 20
125.3805271902347
 30
0.0
 10
128.6161669535827
 20
125.2224217742995
 30
0.0
 10
128.5298016730047
 20
124.9084340850924
 30
0.0
 10
128.5001110371165
 20
124.5841535490956
 30
0.0
 10
128.4853708392016
 20
124.4231612915803
 30
0.0
 11
128.6596553524637
 21
125.3805271902347
 31
0.0
 11
128.5435601756248
 21
124.9036011608107
 31
0.0
 11
128.4853708392016
 21
124.4231612915803
 31
0.0
  0
SPLINE
  5
22A
330
1F
100
AcDbEntity
  8
0
  6
Continuous
 62
     7
100
AcDbSpline
210
0.0
220
0.0
230
1.0
 70
     8
 71
     3
 72
     9
 73
     5
 74
     3
 42
0.000000001
 43
0.0000000001
 44
0.00000001
 40
0.0
 40
0.0
 40
0.0
 40
0.0
 40
0.4839508923925611
 40
0.9748037492115194
 40
0.9748037492115194
 40
0.9748037492115194
 40
0.9748037492115194
 10
83.59695152300941
 20
124.4231612915803
 30
0.0
 10
83.58221132509445
 20
124.5841535490956
 30
0.0
 10
83.55252068920606
 20
124.9084340850924
 30
0.0
 10
83.46615540862811
 20
125.2224217742995
 30
0.0
 10
83.4226670097471
 20
125.3805271902347
 30
0.0
 11
83.59695152300941
 21
124.4231612915803
 31
0.0
 11
83.53876218658604
 21
124.9036011608107
 31
0.0
 11
83.4226670097471
 21
125.3805271902347
 31
0.0
  0
SPLINE
  5
22B
330
1F
100
AcDbEntity
  8
0
  6
Continuous
 62
     7
100
AcDbSpline
210
0.0
220
0.0
230
1.0
 70
     8
 71
     3
 72
     9
 73
     5
 74
     3
 42
0.000000001
 43
0.0000000001
 44
0.00000001
 40
0.0
 40
0.0
 40
0.0
 40
0.0
 40
0.4909646732534954
 40
0.9795576264628298
 40
0.9795576264628298
 40
0.9795576264628298
 40
0.9795576264628298
 10
83.71101843292632
 20
123.4506555214593
 30
0.0
 10
83.73562728445721
 20
123.612825565585
 30
0.0
 10
83.78472608883264
 20
123.9363822551874
 30
0.0
 10
83.7749348619548
 20
124.2634922469511
 30
0.0
 10
83.77005109191094
 20
124.4266512412505
 30
0.0
 11
83.71101843292632
 21
123.4506555214593
 31
0.0
 11
83.77005109075031
 21
123.9380582874389
 31
0.0
 11
83.77005109191094
 21
124.4266512412505
 31
0.0
  0
SPLINE
  5
22C
330
1F
100
AcDbEntity
  8
0
  6
Continuous
 62
     7
100
AcDbSpline
210
0.0
220
0.0
230
1.0
 70
     8
 71
     3
 72
     9
 73
     5
 74
     3
 42
0.000000001
 43
0.0000000001
 44
0.00000001
 40
0.0
 40
0.0
 40
0.0
 40
0.0
 40
0.7088014560382363
 40
1.393721038269858
 40
1.393721038269858
 40
1.393721038269858
 40
1.393721038269858
 10
132.6358555042377
 20
129.5446658661662
 30
0.0
 10
132.4244817738636
 20
129.4388064595893
 30
0.0
 10
132.0088562052048
 20
129.2306543836335
 30
0.0
 10
131.6134193696276
 20
128.9863353098985
 30
0.0
 10
131.4190889276461
 20
128.8662690088452
 30
0.0
 11
132.6358555042377
 21
129.5446658661662
 31
0.0
 11
132.0069559534483
 21
129.2177333662215
 31
0.0
 11
131.4190889276461
 21
128.8662690088452
 31
0.0
  0
SPLINE
  5
22D
330
1F
100
AcDbEntity
  8
0
  6
Continuous
 62
     7
100
AcDbSpline
210
0.0
220
0.0
230
1.0
 70
     8
 71
     3
 72
     9
 73
     5
 74
     3
 42
0.000000001
 43
0.0000000001
 44
0.00000001
 40
0.0
 40
0.0
 40
0.0
 40
0.0
 40
0.7902017137346417
 40
1.562735005242481
 40
1.562735005242481
 40
1.562735005242481
 40
1.562735005242481
 10
135.4978213756564
 20
130.5771729678318
 30
0.0
 10
135.2433567723132
 20
130.5087864731817
 30
0.0
 10
134.7401172426309
 20
130.3735425444834
 30
0.0
 10
134.2477243772075
 20
130.2029990861725
 30
0.0
 10
134.0043114664774
 20
130.1186914374284
 30
0.0
 11
135.4978213756564
 21
130.5771729678318
 31
0.0
 11
134.7372008977752
 21
130.3629879137539
 31
0.0
 11
134.0043114664774
 21
130.1186914374284
 31
0.0
  0
SPLINE
  5
22E
330
1F
100
AcDbEntity
  8
0
  6
Continuous
 62
     7
100
AcDbSpline
210
0.0
220
0.0
230
1.0
 70
     8
 71
     3
 72
     9
 73
     5
 74
     3
 42
0.000000001
 43
0.0000000001
 44
0.00000001
 40
0.0
 40
0.0
 40
0.0
 40
0.0
 40
0.8071893688659858
 40
1.601389564761212
 40
1.601389564761212
 40
1.601389564761212
 40
1.601389564761212
 10
137.1350575507085
 20
130.815060466308
 30
0.0
 10
136.8699970383991
 20
130.7683532318599
 30
0.0
 10
136.3441413325845
 20
130.6756903493243
 30
0.0
 10
135.8254916400958
 20
130.5487659015567
 30
0.0
 10
135.5682702287671
 20
130.4858184220675
 30
0.0
 11
137.1350575507085
 21
130.815060466308
 31
0.0
 11
136.3417068621799
 21
130.6662338471352
 31
0.0
 11
135.5682702287671
 21
130.4858184220675
 31
0.0
  0
SPLINE
  5
22F
330
1F
100
AcDbEntity
  8
0
  6
Continuous
 62
     7
100
AcDbSpline
210
0.0
220
0.0
230
1.0
 70
     8
 71
     3
 72
     9
 73
     5
 74
     3
 42
0.000000001
 43
0.0000000001
 44
0.00000001
 40
0.0
 40
0.0
 40
0.0
 40
0.0
 40
0.0904574483981503
 40
0.1836900492862595
 40
0.1836900492862595
 40
0.1836900492862595
 40
0.1836900492862595
 10
120.1172428759335
 20
128.7993559482093
 30
0.0
 10
120.0893337668178
 20
128.8107739747598
 30
0.0
 10
120.0326593150386
 20
128.8339603039732
 30
0.0
 10
119.9752980024224
 20
128.8553915206921
 30
0.0
 10
119.9461840408478
 20
128.8662690088449
 30
0.0
 11
120.1172428759335
 21
128.7993559482093
 31
0.0
 11
120.0333489790297
 21
128.8331843985369
 31
0.0
 11
119.9461840408478
 21
128.8662690088449
 31
0.0
  0
SPLINE
  5
230
330
1F
100
AcDbEntity
  8
0
  6
Continuous
 62
     7
100
AcDbSpline
210
0.0
220
0.0
230
1.0
 70
     8
 71
     3
 72
    17
 73
    13
 74
    11
 42
0.000000001
 43
0.0000000001
 44
0.00000001
 40
0.0
 40
0.0
 40
0.0
 40
0.0
 40
0.045916744513631
 40
0.0813938340738369
 40
0.1244226667353091
 40
0.1572406006995942
 40
0.1896041902953119
 40
0.2276384228128035
 40
0.2493834429025007
 40
0.2747610421659987
 40
0.2999585808342302
 40
0.3253527272219182
 40
0.3253527272219182
 40
0.3253527272219182
 40
0.3253527272219182
 10
119.9461840408478
 20
128.8662690088449
 30
0.0
 10
119.9551810580438
 20
128.8786791580115
 30
0.0
 10
119.9711295149497
 20
128.9006778858391
 30
0.0
 10
119.990160969064
 20
128.9376671104801
 30
0.0
 10
120.0016495591178
 20
128.9733097447744
 30
0.0
 10
120.0037880963678
 20
129.0097098622046
 30
0.0
 10
119.9960497243027
 20
129.0437591324779
 30
0.0
 10
119.9796885894875
 20
129.0704413926451
 30
0.0
 10
119.9598581928639
 20
129.0908463712467
 30
0.0
 10
119.9407379840782
 20
129.1056499684134
 30
0.0
 10
119.9190610307918
 20
129.1188467389684
 30
0.0
 10
119.9037668117989
 20
129.125975126854
 30
0.0
 10
119.8960899813903
 20
129.1295531657878
 30
0.0
 11
119.9461840408478
 21
128.8662690088449
 31
0.0
 11
119.9720616800938
 21
128.9041991474803
 31
0.0
 11
119.9882081413995
 21
128.935788952155
 31
0.0
 11
120.0006665683489
 21
128.9769747285476
 31
0.0
 11
120.002231737187
 21
129.0097553192431
 31
0.0
 11
119.994948510933
 21
129.0412887402399
 31
0.0
 11
119.9754578794293
 21
129.0739493931557
 31
0.0
 11
119.9603878962709
 21
129.089625538765
 31
0.0
 11
119.9404235402271
 21
129.1052922895301
 31
0.0
 11
119.9189041858686
 21
129.1184008136272
 31
0.0
 11
119.8960899813903
 21
129.1295531657878
 31
0.0
  0
SPLINE
  5
231
330
1F
100
AcDbEntity
  8
0
  6
Continuous
 62
     7
100
AcDbSpline
210
0.0
220
0.0
230
1.0
 70
     8
 71
     3
 72
     9
 73
     5
 74
     3
 42
0.000000001
 43
0.0000000001
 44
0.00000001
 40
0.0
 40
0.0
 40
0.0
 40
0.0
 40
0.7421540889408347
 40
1.463275664540647
 40
1.463275664540647
 40
1.463275664540647
 40
1.463275664540647
 10
134.0960961754336
 20
130.0338866278128
 30
0.0
 10
133.8643021515517
 20
129.947145039655
 30
0.0
 10
133.4072831122221
 20
129.7761200858102
 30
0.0
 10
132.9651021828298
 20
129.5697589328486
 30
0.0
 10
132.7471895840828
 20
129.4680614218542
 30
0.0
 11
134.0960961754336
 21
130.0338866278128
 31
0.0
 11
133.4045310397996
 21
129.7645720249858
 31
0.0
 11
132.7471895840828
 21
129.4680614218542
 31
0.0
  0
SPLINE
  5
232
330
1F
100
AcDbEntity
  8
0
  6
Continuous
 62
     7
100
AcDbSpline
210
0.0
220
0.0
230
1.0
 70
     8
 71
     3
 72
     9
 73
     5
 74
     3
 42
0.000000001
 43
0.0000000001
 44
0.00000001
 40
0.0
 40
0.0
 40
0.0
 40
0.0
 40
0.8377186042995939
 40
1.667312548945904
 40
1.667312548945904
 40
1.667312548945904
 40
1.667312548945904
 10
138.7418569200394
 20
131.1142312455247
 30
0.0
 10
138.4636982208276
 20
131.0888404747163
 30
0.0
 10
137.9100785619791
 20
131.0383051670098
 30
0.0
 10
137.3606776333224
 20
130.9534216096065
 30
0.0
 10
137.0873157602348
 20
130.9111866359019
 30
0.0
 11
138.7418569200394
 21
131.1142312455247
 31
0.0
 11
137.9084458097616
 21
131.0293879688145
 31
0.0
 11
137.0873157602348
 21
130.9111866359019
 31
0.0
  0
SPLINE
  5
233
330
1F
100
AcDbEntity
  8
0
  6
Continuous
 62
     7
100
AcDbSpline
210
0.0
220
0.0
230
1.0
 70
     8
 71
     3
 72
     9
 73
     5
 74
     3
 42
0.000000001
 43
0.0000000001
 44
0.00000001
 40
0.0
 40
0.0
 40
0.0
 40
0.0
 40
0.0026101886392109
 40
0.005220386227546
 40
0.005220386227546
 40
0.005220386227546
 40
0.005220386227546
 10
138.760757431037
 20
131.0365868005108
 30
0.0
 10
138.761624916587
 20
131.0366537201872
 30
0.0
 10
138.7633598921978
 20
131.0367875398285
 30
0.0
 10
138.765094901383
 20
131.0369209234593
 30
0.0
 10
138.7659624082302
 20
131.0369876054185
 30
0.0
 11
138.760757431037
 21
131.0365868005108
 31
0.0
 11
138.7633598968494
 21
131.0367874405673
 31
0.0
 11
138.7659624082302
 21
131.0369876054185
 31
0.0
  0
SPLINE
  5
234
330
1F
100
AcDbEntity
  8
0
  6
Continuous
 62
     7
100
AcDbSpline
210
0.0
220
0.0
230
1.0
 70
     8
 71
     3
 72
    17
 73
    13
 74
    11
 42
0.000000001
 43
0.0000000001
 44
0.00000001
 40
0.0
 40
0.0
 40
0.0
 40
0.0
 40
0.0663708641202182
 40
0.138095294172185
 40
0.2105441414704333
 40
0.2764216384302272
 40
0.3335341150334649
 40
0.4040278549806454
 40
0.4434093983578493
 40
0.478618047897118
 40
0.5177469775927599
 40
0.5534158675239327
 40
0.5534158675239327
 40
0.5534158675239327
 40
0.5534158675239327
 10
72.1244908088209
 20
116.8365926700055
 30
0.0
 10
72.10235708255689
 20
116.8371539482469
 30
0.0
 10
72.05630429367883
 20
116.8383217931269
 30
0.0
 10
71.98677741756461
 20
116.8496277289875
 30
0.0
 10
71.91969986253449
 20
116.8707926714584
 30
0.0
 10
71.86198761398711
 20
116.9020071350283
 30
0.0
 10
71.81239751755729
 20
116.9438988026187
 30
0.0
 10
71.77931647336793
 20
116.9896166613741
 30
0.0
 10
71.7597424572688
 20
117.0340106190338
 30
0.0
 10
71.74924629888278
 20
117.0705182850129
 30
0.0
 10
71.74325804966544
 20
117.1068255728511
 30
0.0
 10
71.74257430491207
 20
117.1317689959547
 30
0.0
 10
71.74224825375131
 20
117.1436637843733
 30
0.0
 11
72.1244908088209
 21
116.8365926700055
 31
0.0
 11
72.05819364950021
 21
116.8397196753263
 31
0.0
 11
71.98740503571742
 21
116.8512681013566
 31
0.0
 11
71.91851372426493
 21
116.8736918133052
 31
0.0
 11
71.8607753072933
 21
116.9054112077863
 31
0.0
 11
71.81731475012357
 21
116.942465426166
 31
0.0
 11
71.7760108906923
 21
116.9995912418301
 31
0.0
 11
71.76006555407469
 21
117.0356003001517
 31
0.0
 11
71.75023953924511
 21
117.0694100400717
 31
0.0
 11
71.74399684093757
 21
117.1080377763352
 31
0.0
 11
71.74224825375131
 21
117.1436637843733
 31
0.0
  0
SPLINE
  5
235
330
1F
100
AcDbEntity
  8
0
  6
Continuous
 62
     7
100
AcDbSpline
210
0.0
220
0.0
230
1.0
 70
     8
 71
     3
 72
     9
 73
     5
 74
     3
 42
0.000000001
 43
0.0000000001
 44
0.00000001
 40
0.0
 40
0.0
 40
0.0
 40
0.0
 40
0.0026101979878431
 40
0.0052203862279341
 40
0.0052203862279341
 40
0.0052203862279341
 40
0.0052203862279341
 10
73.31635995398051
 20
131.0369876054185
 30
0.0
 10
73.31722746096042
 20
131.0369209234493
 30
0.0
 10
73.31896247014592
 20
131.036787539819
 30
0.0
 10
73.32069744575676
 20
131.0366537201776
 30
0.0
 10
73.32156493117412
 20
131.0365868005113
 30
0.0
 11
73.31635995398051
 21
131.0369876054185
 31
0.0
 11
73.31896246575968
 21
131.0367874405372
 31
0.0
 11
73.32156493117412
 21
131.0365868005113
 31
0.0
  0
SPLINE
  5
236
330
1F
100
AcDbEntity
  8
0
  6
Continuous
 62
     7
100
AcDbSpline
210
0.0
220
0.0
230
1.0
 70
     8
 71
     3
 72
     9
 73
     5
 74
     3
 42
0.000000001
 43
0.0000000001
 44
0.00000001
 40
0.0
 40
0.0
 40
0.0
 40
0.0
 40
0.6508643296665865
 40
1.277143361971805
 40
1.277143361971805
 40
1.277143361971805
 40
1.277143361971805
 10
131.5478053871571
 20
128.7993559482095
 30
0.0
 10
131.3668100252905
 20
128.6794339868616
 30
0.0
 10
131.0116561063317
 20
128.444119896824
 30
0.0
 10
130.6826329305648
 20
128.1734939662728
 30
0.0
 10
130.52128823377
 20
128.0407857982813
 30
0.0
 11
131.5478053871571
 21
128.7993559482095
 31
0.0
 11
131.0116059254229
 21
128.4304189436734
 31
0.0
 11
130.52128823377
 21
128.0407857982813
 31
0.0
  0
SPLINE
  5
237
330
1F
100
AcDbEntity
  8
0
  6
Continuous
 62
     7
100
AcDbSpline
210
0.0
220
0.0
230
1.0
 70
     8
 71
     3
 72
    11
 73
     7
 74
     5
 42
0.000000001
 43
0.0000000001
 44
0.00000001
 40
0.0
 40
0.0
 40
0.0
 40
0.0
 40
0.0522035262984929
 40
0.0968867963307827
 40
0.1481554215471376
 40
0.1908881354220836
 40
0.1908881354220836
 40
0.1908881354220836
 40
0.1908881354220836
 10
119.9666412330323
 20
128.6823547643423
 30
0.0
 10
119.9810077557454
 20
128.6921771308722
 30
0.0
 10
120.0076712022338
 20
128.7104069001464
 30
0.0
 10
120.0472326440863
 20
128.7399804343858
 30
0.0
 10
120.0833727561736
 20
128.7688454989614
 30
0.0
 10
120.1066576438304
 20
128.7898206877532
 30
0.0
 10
120.1172428759335
 20
128.7993559482093
 30
0.0
 11
119.9666412330323
 21
128.6823547643423
 31
0.0
 11
120.0095108411167
 21
128.712144105698
 31
0.0
 11
120.0453402932718
 21
128.7388432631432
 31
0.0
 11
120.0852368889107
 21
128.7710416116237
 31
0.0
 11
120.1172428759335
 21
128.7993559482093
 31
0.0
  0
SPLINE
  5
238
330
1F
100
AcDbEntity
  8
0
  6
Continuous
 62
     7
100
AcDbSpline
210
0.0
220
0.0
230
1.0
 70
     8
 71
     3
 72
     9
 73
     5
 74
     3
 42
0.000000001
 43
0.0000000001
 44
0.00000001
 40
0.0
 40
0.0
 40
0.0
 40
0.0
 40
0.5349928886640031
 40
1.090597662203384
 40
1.090597662203384
 40
1.090597662203384
 40
1.090597662203384
 10
83.01930089774271
 20
126.3145720255201
 30
0.0
 10
82.92758360918101
 20
126.4677921518858
 30
0.0
 10
82.7406153867728
 20
126.7801355666429
 30
0.0
 10
82.51145167005602
 20
127.0630069236545
 30
0.0
 10
82.3947042495443
 20
127.2071156771779
 30
0.0
 11
83.01930089774271
 21
126.3145720255201
 31
0.0
 11
82.73399512180589
 21
126.7671402586553
 31
0.0
 11
82.3947042495443
 21
127.2071156771779
 31
0.0
  0
SPLINE
  5
239
330
1F
100
AcDbEntity
  8
0
  6
Continuous
 62
     7
100
AcDbSpline
210
0.0
220
0.0
230
1.0
 70
     8
 71
     3
 72
    25
 73
    21
 74
    19
 42
0.000000001
 43
0.0000000001
 44
0.00000001
 40
0.0
 40
0.0
 40
0.0
 40
0.0
 40
0.0570060496346146
 40
0.1296956712000908
 40
0.2025202858337777
 40
0.2801967057735071
 40
0.3494175478454956
 40
0.4327050248203219
 40
0.508421548793693
 40
0.5866223817056632
 40
0.6678600103288636
 40
0.7408723004105642
 40
0.8420184165944854
 40
0.9304187916477005
 40
1.032539664971086
 40
1.121000769630271
 40
1.2096750056638
 40
1.311715538577781
 40
1.408106641695145
 40
1.501760982944641
 40
1.501760982944641
 40
1.501760982944641
 40
1.501760982944641
 10
93.81831447565793
 20
127.182354764333
 30
0.0
 10
93.83090721475658
 20
127.1681106213776
 30
0.0
 10
93.85955723680665
 20
127.135703483843
 30
0.0
 10
93.909681961423
 20
127.0902805806601
 30
0.0
 10
93.96812259006677
 20
127.0441899830099
 30
0.0
 10
94.02858144303981
 20
127.0027508407867
 30
0.0
 10
94.09410422325158
 20
126.9627803716321
 30
0.0
 10
94.160956441584
 20
126.9263997558959
 30
0.0
 10
94.23206843623554
 20
126.8917848493705
 30
0.0
 10
94.30388693570642
 20
126.8603286790334
 30
0.0
 10
94.37602387701631
 20
126.8319925006466
 30
0.0
 10
94.45631531189935
 20
126.8036547312698
 30
0.0
 10
94.5399149473557
 20
126.7776566477098
 30
0.0
 10
94.63383449708425
 20
126.7524558040095
 30
0.0
 10
94.72454297136723
 20
126.7318375345656
 30
0.0
 10
94.81605574333733
 20
126.7146999153944
 30
0.0
 10
94.90809875265884
 20
126.700837825833
 30
0.0
 10
95.00325405180837
 20
126.6904141352733
 30
0.0
 10
95.1004265423652
 20
126.6836331432647
 30
0.0
 10
95.16377966047769
 20
126.6827767755749
 30
0.0
 10
95.19500005938204
 20
126.682354764333
 30
0.0
 11
93.81831447565793
 21
127.182354764333
 31
0.0
 11
93.8567592679857
 21
127.1402633396189
 31
0.0
 11
93.91016915298883
 21
127.0909564859414
 31
0.0
 11
93.9673215383938
 21
127.0458230280643
 31
0.0
 11
94.03129797585814
 21
127.0017703147591
 31
0.0
 11
94.09035993719891
 21
126.9656703196064
 31
0.0
 11
94.16347381975254
 21
126.9257809231292
 31
0.0
 11
94.23153291381863
 21
126.8926003310724
 31
0.0
 11
94.3031483010746
 21
126.8611900373221
 31
0.0
 11
94.37874966363577
 21
126.8314581308099
 31
0.0
 11
94.44759375593651
 21
126.8071417690806
 31
0.0
 11
94.54416785253301
 21
126.7770754976825
 31
0.0
 11
94.62954482187132
 21
126.7541539048298
 31
0.0
 11
94.72912447801953
 21
126.731514009182
 31
0.0
 11
94.81607398016342
 21
126.7152305463753
 31
0.0
 11
94.9037634417484
 21
126.7020518301843
 31
0.0
 11
95.0051923143377
 21
126.6908959159634
 31
0.0
 11
95.10136993965321
 21
126.684484306006
 31
0.0
 11
95.19500005938204
 21
126.682354764333
 31
0.0
  0
SPLINE
  5
23A
330
1F
100
AcDbEntity
  8
0
  6
Continuous
 62
     7
100
AcDbSpline
210
0.0
220
0.0
230
1.0
 70
     8
 71
     3
 72
     9
 73
     5
 74
     3
 42
0.000000001
 43
0.0000000001
 44
0.00000001
 40
0.0
 40
0.0
 40
0.0
 40
0.0
 40
0.0161635733305753
 40
0.0323454911667546
 40
0.0323454911667546
 40
0.0323454911667546
 40
0.0323454911667546
 10
118.2640078865522
 20
127.182354764333
 30
0.0
 10
118.2674667961241
 20
127.1864857463834
 30
0.0
 10
118.2743885562025
 20
127.1947523859959
 30
0.0
 10
118.2813412489762
 20
127.2029930265396
 30
0.0
 10
118.2848195746026
 20
127.2071156771779
 30
0.0
 11
118.2640078865522
 21
127.182354764333
 31
0.0
 11
118.2743923473271
 21
127.19474121167
 31
0.0
 11
118.2848195746026
 21
127.2071156771779
 31
0.0
  0
SPLINE
  5
23B
330
1F
100
AcDbEntity
  8
0
  6
Continuous
 62
     7
100
AcDbSpline
210
0.0
220
0.0
230
1.0
 70
     8
 71
     3
 72
     9
 73
     5
 74
     3
 42
0.000000001
 43
0.0000000001
 44
0.00000001
 40
0.0
 40
0.0
 40
0.0
 40
0.0
 40
0.5556047735393046
 40
1.090597662203448
 40
1.090597662203448
 40
1.090597662203448
 40
1.090597662203448
 10
129.6876181126665
 20
127.2071156771779
 30
0.0
 10
129.5708706921548
 20
127.0630069236545
 30
0.0
 10
129.341706975438
 20
126.7801355666429
 30
0.0
 10
129.1547387530297
 20
126.4677921518859
 30
0.0
 10
129.063021464468
 20
126.3145720255201
 30
0.0
 11
129.6876181126665
 21
127.2071156771779
 31
0.0
 11
129.3483272404049
 21
126.7671402586554
 31
0.0
 11
129.063021464468
 21
126.3145720255201
 31
0.0
  0
SPLINE
  5
23C
330
1F
100
AcDbEntity
  8
0
  6
Continuous
 62
     7
100
AcDbSpline
210
0.0
220
0.0
230
1.0
 70
     8
 71
     3
 72
     9
 73
     5
 74
     3
 42
0.000000001
 43
0.0000000001
 44
0.00000001
 40
0.0
 40
0.0
 40
0.0
 40
0.0
 40
0.6105709131690885
 40
1.197046743818267
 40
1.197046743818267
 40
1.197046743818267
 40
1.197046743818267
 10
130.3776947140652
 20
128.0967050886284
 30
0.0
 10
130.2252490708021
 20
127.9615446124927
 30
0.0
 10
129.9263737911629
 20
127.696557510838
 30
0.0
 10
129.6616433038825
 20
127.3974810217487
 30
0.0
 10
129.5319424172935
 20
127.2509527918567
 30
0.0
 11
130.3776947140652
 21
128.0967050886284
 31
0.0
 11
129.9292410944132
 21
127.6823547639979
 31
0.0
 11
129.5319424172935
 21
127.2509527918567
 31
0.0
  0
SPLINE
  5
23D
330
1F
100
AcDbEntity
  8
0
  6
Continuous
 62
     7
100
AcDbSpline
210
0.0
220
0.0
230
1.0
 70
     8
 71
     3
 72
    19
 73
    15
 74
    13
 42
0.000000001
 43
0.0000000001
 44
0.00000001
 40
0.0
 40
0.0
 40
0.0
 40
0.0
 40
0.0676514074569302
 40
0.1293211238732206
 40
0.1962091165388098
 40
0.2799355366246904
 40
0.3601557887006107
 40
0.4322337405391602
 40
0.582262613690939
 40
0.7404936152116705
 40
0.9292950177766687
 40
1.120195450173211
 40
1.315002486979653
 40
1.501549842076447
 40
1.501549842076447
 40
1.501549842076447
 40
1.501549842076447
 10
118.2640078865522
 20
127.182354764333
 30
0.0
 10
118.2489882779059
 20
127.1655112807832
 30
0.0
 10
118.2202770706755
 20
127.1333136159972
 30
0.0
 10
118.1715132386758
 20
127.0895758156268
 30
0.0
 10
118.1160819771669
 20
127.0455502794946
 30
0.0
 10
118.0526588479068
 20
127.0018619560818
 30
0.0
 10
117.9853100532497
 20
126.96112588768
 30
0.0
 10
117.8966273389942
 20
126.9132008969123
 30
0.0
 10
117.7813748604467
 20
126.8600299618437
 30
0.0
 10
117.626055950138
 20
126.801973819389
 30
0.0
 10
117.4536838220052
 20
126.7518178991444
 30
0.0
 10
117.2660511910364
 20
126.7128764486243
 30
0.0
 10
117.0766663471173
 20
126.6874254475655
 30
0.0
 10
116.9495190314065
 20
126.6840204047919
 30
0.0
 10
116.887322302828
 20
126.682354764333
 30
0.0
 11
118.2640078865522
 21
127.182354764333
 31
0.0
 11
118.2180106746878
 21
127.132746600407
 31
0.0
 11
118.1724377223387
 21
127.0911983069652
 31
0.0
 11
118.120073689123
 21
127.049580868698
 31
0.0
 11
118.0512426515124
 21
127.001911156148
 31
0.0
 11
117.9826491719435
 21
126.9603152028376
 31
0.0
 11
117.919266236665
 21
126.9259956074911
 31
0.0
 11
117.7831704529332
 21
126.862856076493
 31
0.0
 11
117.635034130503
 21
126.8072442087037
 31
0.0
 11
117.4537779058666
 21
126.7544034023
 31
0.0
 11
117.2669162155144
 21
126.7153433943026
 31
0.0
 11
117.0736875486705
 21
126.6905953993548
 31
0.0
 11
116.887322302828
 21
126.682354764333
 31
0.0
  0
SPLINE
  5
23E
330
1F
100
AcDbEntity
  8
0
  6
Continuous
 62
     7
100
AcDbSpline
210
0.0
220
0.0
230
1.0
 70
     8
 71
     3
 72
     9
 73
     5
 74
     3
 42
0.000000001
 43
0.0000000001
 44
0.00000001
 40
0.0
 40
0.0
 40
0.0
 40
0.0
 40
0.7088014569740557
 40
1.440374069018532
 40
1.440374069018532
 40
1.440374069018532
 40
1.440374069018532
 10
132.0069559526447
 20
119.1469761619608
 30
0.0
 10
132.215177524439
 20
119.0350881084939
 30
0.0
 10
132.6383100618199
 20
118.8077174723287
 30
0.0
 10
133.0789304975739
 20
118.6164045217235
 30
0.0
 10
133.3027236470358
 20
118.5192358037086
 30
0.0
 11
132.0069559526447
 21
119.1469761619608
 31
0.0
 11
132.6358555049858
 21
118.8200436630132
 31
0.0
 11
133.3027236470358
 21
118.5192358037086
 31
0.0
  0
SPLINE
  5
23F
330
1F
100
AcDbEntity
  8
0
  6
Continuous
 62
     7
100
AcDbSpline
210
0.0
220
0.0
230
1.0
 70
     8
 71
     3
 72
     9
 73
     5
 74
     3
 42
0.000000001
 43
0.0000000001
 44
0.00000001
 40
0.0
 40
0.0
 40
0.0
 40
0.0
 40
0.5244020397214697
 40
1.033677768955842
 40
1.033677768955842
 40
1.033677768955842
 40
1.033677768955842
 10
128.8982936437589
 20
126.3454737249576
 30
0.0
 10
128.8161351102388
 20
126.1908162997684
 30
0.0
 10
128.6541879138129
 20
125.8859625148773
 30
0.0
 10
128.5435775239867
 20
125.5589872499245
 30
0.0
 10
128.4890816460732
 20
125.3978920080015
 30
0.0
 11
128.8982936437589
 21
126.3454737249576
 31
0.0
 11
128.6650306205954
 21
125.8758080333685
 31
0.0
 11
128.4890816460732
 21
125.3978920080015
 31
0.0
  0
SPLINE
  5
240
330
1F
100
AcDbEntity
  8
0
  6
Continuous
 62
     7
100
AcDbSpline
210
0.0
220
0.0
230
1.0
 70
     8
 71
     3
 72
     9
 73
     5
 74
     3
 42
0.000000001
 43
0.0000000001
 44
0.00000001
 40
0.0
 40
0.0
 40
0.0
 40
0.0
 40
0.6508643306540695
 40
1.325999346457279
 40
1.325999346457279
 40
1.325999346457279
 40
1.325999346457279
 10
131.0116059245208
 20
119.9342905845861
 30
0.0
 10
131.1885034776638
 20
119.808452557231
 30
0.0
 10
131.5488950923508
 20
119.552084027964
 30
0.0
 10
131.9321429513332
 20
119.3313150606982
 30
0.0
 10
132.1272743117954
 20
119.2189101419965
 30
0.0
 11
131.0116059245208
 21
119.9342905845861
 31
0.0
 11
131.5478053880078
 21
119.5653535808993
 31
0.0
 11
132.1272743117954
 21
119.2189101419965
 31
0.0
  0
SPLINE
  5
241
330
1F
100
AcDbEntity
  8
0
  6
Continuous
 62
     7
100
AcDbSpline
210
0.0
220
0.0
230
1.0
 70
     8
 71
     3
 72
     9
 73
     5
 74
     3
 42
0.000000001
 43
0.0000000001
 44
0.00000001
 40
0.0
 40
0.0
 40
0.0
 40
0.0
 40
0.6105709131690781
 40
1.197046743818194
 40
1.197046743818194
 40
1.197046743818194
 40
1.197046743818194
 10
118.9748961760012
 20
128.0967050886283
 30
0.0
 10
118.8224505327381
 20
127.9615446124926
 30
0.0
 10
118.523575253099
 20
127.696557510838
 30
0.0
 10
118.2588447658185
 20
127.3974810217486
 30
0.0
 10
118.1291438792295
 20
127.2509527918567
 30
0.0
 11
118.9748961760012
 21
128.0967050886283
 31
0.0
 11
118.5264425563493
 21
127.6823547639978
 31
0.0
 11
118.1291438792295
 21
127.2509527918567
 31
0.0
  0
SPLINE
  5
242
330
1F
100
AcDbEntity
  8
0
  6
Continuous
 62
     7
100
AcDbSpline
210
0.0
220
0.0
230
1.0
 70
     8
 71
     3
 72
     9
 73
     5
 74
     3
 42
0.000000001
 43
0.0000000001
 44
0.00000001
 40
0.0
 40
0.0
 40
0.0
 40
0.0
 40
0.4814646697898496
 40
0.9774387736483734
 40
0.9774387736483734
 40
0.9774387736483734
 40
0.9774387736483734
 10
119.1845126319967
 20
128.0967050886284
 30
0.0
 10
119.3090731645679
 20
128.1980141196834
 30
0.0
 10
119.5619480019508
 20
128.4036852180308
 30
0.0
 10
119.8304150797722
 20
128.5885501881751
 30
0.0
 10
119.9666412330323
 20
128.6823547643423
 30
0.0
 11
119.1845126319967
 21
128.0967050886284
 31
0.0
 11
119.56197742654
 21
128.3955839225935
 31
0.0
 11
119.9666412330323
 21
128.6823547643423
 31
0.0
  0
SPLINE
  5
243
330
1F
100
AcDbEntity
  8
0
  6
Continuous
 62
     7
100
AcDbSpline
210
0.0
220
0.0
230
1.0
 70
     8
 71
     3
 72
     9
 73
     5
 74
     3
 42
0.000000001
 43
0.0000000001
 44
0.00000001
 40
0.0
 40
0.0
 40
0.0
 40
0.0
 40
0.7421540897494763
 40
1.503651190639861
 40
1.503651190639861
 40
1.503651190639861
 40
1.503651190639861
 10
133.4045310391268
 20
118.600137503146
 30
0.0
 10
133.6340241513429
 20
118.5075176812808
 30
0.0
 10
134.0989917388163
 20
118.3198640747619
 30
0.0
 10
134.5766263139774
 20
118.1672865215922
 30
0.0
 10
134.8185157571754
 20
118.0900163736068
 30
0.0
 11
133.4045310391268
 21
118.600137503146
 31
0.0
 11
134.0960961760403
 21
118.3308229014144
 31
0.0
 11
134.8185157571754
 21
118.0900163736068
 31
0.0
  0
SPLINE
  5
244
330
1F
100
AcDbEntity
  8
0
  6
Continuous
 62
     7
100
AcDbSpline
210
0.0
220
0.0
230
1.0
 70
     8
 71
     3
 72
     9
 73
     5
 74
     3
 42
0.000000001
 43
0.0000000001
 44
0.00000001
 40
0.0
 40
0.0
 40
0.0
 40
0.0
 40
0.6849195822316316
 40
1.393721038269739
 40
1.393721038269739
 40
1.393721038269739
 40
1.393721038269739
 10
80.6632334345648
 20
128.8662690088452
 30
0.0
 10
80.46890299258327
 20
128.9863353098985
 30
0.0
 10
80.07346615700618
 20
129.2306543836335
 30
0.0
 10
79.65784058834731
 20
129.4388064595892
 30
0.0
 10
79.44646685797323
 20
129.544665866166
 30
0.0
 11
80.6632334345648
 21
128.8662690088452
 31
0.0
 11
80.07536640876259
 21
129.2177333662215
 31
0.0
 11
79.44646685797323
 21
129.544665866166
 31
0.0
  0
SPLINE
  5
245
330
1F
100
AcDbEntity
  8
0
  6
Continuous
 62
     7
100
AcDbSpline
210
0.0
220
0.0
230
1.0
 70
     8
 71
     3
 72
     9
 73
     5
 74
     3
 42
0.000000001
 43
0.0000000001
 44
0.00000001
 40
0.0
 40
0.0
 40
0.0
 40
0.0
 40
0.6262790323052027
 40
1.277143361971744
 40
1.277143361971744
 40
1.277143361971744
 40
1.277143361971744
 10
81.5610341284409
 20
128.0407857982812
 30
0.0
 10
81.39968943164614
 20
128.1734939662727
 30
0.0
 10
81.07066625587933
 20
128.4441198968239
 30
0.0
 10
80.71551233692041
 20
128.6794339868614
 30
0.0
 10
80.5345169750538
 20
128.7993559482093
 30
0.0
 11
81.5610341284409
 21
128.0407857982812
 31
0.0
 11
81.07071643678799
 21
128.4304189436733
 31
0.0
 11
80.5345169750538
 21
128.7993559482093
 31
0.0
  0
SPLINE
  5
246
330
1F
100
AcDbEntity
  8
0
  6
Continuous
 62
     7
100
AcDbSpline
210
0.0
220
0.0
230
1.0
 70
     8
 71
     3
 72
     9
 73
     5
 74
     3
 42
0.000000001
 43
0.0000000001
 44
0.00000001
 40
0.0
 40
0.0
 40
0.0
 40
0.0
 40
0.721121575599786
 40
1.463275664540647
 40
1.463275664540647
 40
1.463275664540647
 40
1.463275664540647
 10
79.33513277812801
 20
129.4680614218542
 30
0.0
 10
79.11722017938104
 20
129.5697589328486
 30
0.0
 10
78.67503924998879
 20
129.7761200858103
 30
0.0
 10
78.21802021065906
 20
129.947145039655
 30
0.0
 10
77.98622618677723
 20
130.0338866278128
 30
0.0
 11
79.33513277812801
 21
129.4680614218542
 31
0.0
 11
78.67779132241128
 21
129.7645720249858
 31
0.0
 11
77.98622618677723
 21
130.0338866278128
 31
0.0
  0
SPLINE
  5
247
330
1F
100
AcDbEntity
  8
0
  6
Continuous
 62
     7
100
AcDbSpline
210
0.0
220
0.0
230
1.0
 70
     8
 71
     3
 72
     9
 73
     5
 74
     3
 42
0.000000001
 43
0.0000000001
 44
0.00000001
 40
0.0
 40
0.0
 40
0.0
 40
0.0
 40
0.6105709131691367
 40
1.197046743818417
 40
1.197046743818417
 40
1.197046743818417
 40
1.197046743818417
 10
93.1074261862089
 20
128.0967050886284
 30
0.0
 10
93.25987182947202
 20
127.9615446124927
 30
0.0
 10
93.55874710911115
 20
127.6965575108379
 30
0.0
 10
93.82347759639177
 20
127.3974810217486
 30
0.0
 10
93.95317848298083
 20
127.2509527918567
 30
0.0
 11
93.1074261862089
 21
128.0967050886284
 31
0.0
 11
93.55587980586085
 21
127.6823547639978
 31
0.0
 11
93.95317848298083
 21
127.2509527918567
 31
0.0
  0
SPLINE
  5
248
330
1F
100
AcDbEntity
  8
0
  6
Continuous
 62
     7
100
AcDbSpline
210
0.0
220
0.0
230
1.0
 70
     8
 71
     3
 72
     9
 73
     5
 74
     3
 42
0.000000001
 43
0.0000000001
 44
0.00000001
 40
0.0
 40
0.0
 40
0.0
 40
0.0
 40
0.0161819178361226
 40
0.0323454911666906
 40
0.0323454911666906
 40
0.0323454911666906
 40
0.0323454911666906
 10
93.79750278760764
 20
127.2071156771779
 30
0.0
 10
93.80098111323403
 20
127.2029930265396
 30
0.0
 10
93.80793380600767
 20
127.1947523859959
 30
0.0
 10
93.81485556608604
 20
127.1864857463834
 30
0.0
 10
93.81831447565793
 20
127.182354764333
 30
0.0
 11
93.79750278760764
 21
127.2071156771779
 31
0.0
 11
93.80793001488306
 21
127.19474121167
 31
0.0
 11
93.81831447565793
 21
127.182354764333
 31
0.0
  0
SPLINE
  5
249
330
1F
100
AcDbEntity
  8
0
  6
Continuous
 62
     7
100
AcDbSpline
210
0.0
220
0.0
230
1.0
 70
     8
 71
     3
 72
    11
 73
     7
 74
     5
 42
0.000000001
 43
0.0000000001
 44
0.00000001
 40
0.0
 40
0.0
 40
0.0
 40
0.0
 40
0.0521025907267703
 40
0.0967130359658285
 40
0.1480832902844494
 40
0.190888122569654
 40
0.190888122569654
 40
0.190888122569654
 40
0.190888122569654
 10
92.1156811291778
 20
128.6823547643426
 30
0.0
 10
92.10134222761171
 20
128.6921578988658
 30
0.0
 10
92.0747263097789
 20
128.7103545278918
 30
0.0
 10
92.03518116508684
 20
128.73990958908
 30
0.0
 10
91.99901127291824
 20
128.7687914548367
 30
0.0
 10
91.9756828213945
 20
128.7898048509684
 30
0.0
 10
91.96507948626049
 20
128.7993559481956
 30
0.0
 11
92.1156811291778
 21
128.6823547643426
 31
0.0
 11
92.07289343023987
 21
128.712085098647
 31
0.0
 11
92.03711965391949
 21
128.7387370925937
 31
0.0
 11
91.99714054396779
 21
128.7709950195767
 31
0.0
 11
91.96507948626049
 21
128.7993559481956
 31
0.0
  0
SPLINE
  5
24A
330
1F
100
AcDbEntity
  8
0
  6
Continuous
 62
     7
100
AcDbSpline
210
0.0
220
0.0
230
1.0
 70
     8
 71
     3
 72
    17
 73
    13
 74
    11
 42
0.000000001
 43
0.0000000001
 44
0.00000001
 40
0.0
 40
0.0
 40
0.0
 40
0.0
 40
0.0428903385421965
 40
0.0813702652278614
 40
0.118797139017657
 40
0.1571874796731556
 40
0.1917404207978644
 40
0.2275886728615585
 40
0.2511783005493257
 40
0.274677560954259
 40
0.2999121521047263
 40
0.3253451224588326
 40
0.3253451224588326
 40
0.3253451224588326
 40
0.3253451224588326
 10
92.13613832128823
 20
128.8662690089429
 30
0.0
 10
92.12772012231055
 20
128.8778432626259
 30
0.0
 10
92.11174937887675
 20
128.8998015978019
 30
0.0
 10
92.09334487304702
 20
128.93504472898
 30
0.0
 10
92.08115424462142
 20
128.9713589497969
 30
0.0
 10
92.07804048202428
 20
129.008563858119
 30
0.0
 10
92.0865734680609
 20
129.0444518993365
 30
0.0
 10
92.10344667038382
 20
129.0714525490555
 30
0.0
 10
92.12289963081787
 20
129.0912203144291
 30
0.0
 10
92.14206586504167
 20
129.1059389290118
 30
0.0
 10
92.16322726853015
 20
129.1188304167438
 30
0.0
 10
92.17854401813317
 20
129.1259696027776
 30
0.0
 10
92.18623238082
 20
129.1295531657879
 30
0.0
 11
92.13613832128823
 21
128.8662690089429
 31
0.0
 11
92.11181851848113
 21
128.9015978713713
 31
0.0
 11
92.0941232487321
 21
128.9357677746431
 31
0.0
 11
92.08270632258518
 21
128.9714107933313
 31
0.0
 11
92.08008699835182
 21
129.0097116747759
 31
0.0
 11
92.08818612842934
 21
129.0433019998495
 31
0.0
 11
92.10683714148274
 21
129.073916326488
 31
0.0
 11
92.12328073484339
 21
129.0908301910051
 31
0.0
 11
92.14183617146989
 21
129.105249312051
 31
0.0
 11
92.16338402695511
 21
129.1183822696607
 31
0.0
 11
92.18623238082
 21
129.1295531657879
 31
0.0
  0
SPLINE
  5
24B
330
1F
100
AcDbEntity
  8
0
  6
Continuous
 62
     7
100
AcDbSpline
210
0.0
220
0.0
230
1.0
 70
     8
 71
     3
 72
     9
 73
     5
 74
     3
 42
0.000000001
 43
0.0000000001
 44
0.00000001
 40
0.0
 40
0.0
 40
0.0
 40
0.0
 40
0.4959741038587411
 40
0.9774387736486725
 40
0.9774387736486725
 40
0.9774387736486725
 40
0.9774387736486725
 10
92.1156811291778
 20
128.6823547643426
 30
0.0
 10
92.25190728243786
 20
128.5885501881753
 30
0.0
 10
92.52037436025935
 20
128.4036852180308
 30
0.0
 10
92.77324919764231
 20
128.1980141196834
 30
0.0
 10
92.89780973021351
 20
128.0967050886283
 30
0.0
 11
92.1156811291778
 21
128.6823547643426
 31
0.0
 11
92.52034493567018
 21
128.3955839225936
 31
0.0
 11
92.89780973021351
 21
128.0967050886283
 31
0.0
  0
SPLINE
  5
24C
330
1F
100
AcDbEntity
  8
0
  6
Continuous
 62
     7
100
AcDbSpline
210
0.0
220
0.0
230
1.0
 70
     8
 71
     3
 72
     9
 73
     5
 74
     3
 42
0.000000001
 43
0.0000000001
 44
0.00000001
 40
0.0
 40
0.0
 40
0.0
 40
0.0
 40
0.0932326008598641
 40
0.1836900492721261
 40
0.1836900492721261
 40
0.1836900492721261
 40
0.1836900492721261
 10
92.13613832128823
 20
128.8662690089429
 30
0.0
 10
92.10702435973727
 20
128.8553915207543
 30
0.0
 10
92.04966304715458
 20
128.83396030396
 30
0.0
 10
91.99298859538031
 20
128.8107739747481
 30
0.0
 10
91.96507948626049
 20
128.7993559481956
 30
0.0
 11
92.13613832128823
 21
128.8662690089429
 31
0.0
 11
92.04897338316968
 21
128.8331843985475
 31
0.0
 11
91.96507948626049
 21
128.7993559481956
 31
0.0
  0
SPLINE
  5
24D
330
1F
100
AcDbEntity
  8
0
  6
Continuous
 62
     7
100
AcDbSpline
210
0.0
220
0.0
230
1.0
 70
     8
 71
     3
 72
     9
 73
     5
 74
     3
 42
0.000000001
 43
0.0000000001
 44
0.00000001
 40
0.0
 40
0.0
 40
0.0
 40
0.0
 40
0.7725332915077316
 40
1.562735005242483
 40
1.562735005242483
 40
1.562735005242483
 40
1.562735005242483
 10
78.07801089573331
 20
130.1186914374284
 30
0.0
 10
77.83459798500323
 20
130.2029990861724
 30
0.0
 10
77.34220511957983
 20
130.3735425444835
 30
0.0
 10
76.83896558989751
 20
130.5087864731817
 30
0.0
 10
76.5845009865543
 20
130.5771729678318
 30
0.0
 11
78.07801089573331
 21
130.1186914374284
 31
0.0
 11
77.34512146443564
 21
130.3629879137539
 31
0.0
 11
76.5845009865543
 21
130.5771729678318
 31
0.0
  0
SPLINE
  5
24E
330
1F
100
AcDbEntity
  8
0
  6
Continuous
 62
     7
100
AcDbSpline
210
0.0
220
0.0
230
1.0
 70
     8
 71
     3
 72
     9
 73
     5
 74
     3
 42
0.000000001
 43
0.0000000001
 44
0.00000001
 40
0.0
 40
0.0
 40
0.0
 40
0.0
 40
0.586475830649165
 40
1.197046743818302
 40
1.197046743818302
 40
1.197046743818302
 40
1.197046743818302
 10
82.5503799449175
 20
127.2509527918567
 30
0.0
 10
82.42067905832849
 20
127.3974810217487
 30
0.0
 10
82.15594857104799
 20
127.6965575108379
 30
0.0
 10
81.85707329140884
 20
127.9615446124927
 30
0.0
 10
81.70462764814573
 20
128.0967050886284
 30
0.0
 11
82.5503799449175
 21
127.2509527918567
 31
0.0
 11
82.15308126779769
 21
127.6823547639978
 31
0.0
 11
81.70462764814573
 21
128.0967050886284
 31
0.0
  0
SPLINE
  5
24F
330
1F
100
AcDbEntity
  8
0
  6
Continuous
 62
     7
100
AcDbSpline
210
0.0
220
0.0
230
1.0
 70
     8
 71
     3
 72
     9
 73
     5
 74
     3
 42
0.000000001
 43
0.0000000001
 44
0.00000001
 40
0.0
 40
0.0
 40
0.0
 40
0.0
 40
0.794200195895123
 40
1.601389564761091
 40
1.601389564761091
 40
1.601389564761091
 40
1.601389564761091
 10
76.51405213344361
 20
130.4858184220675
 30
0.0
 10
76.25683072211493
 20
130.5487659015568
 30
0.0
 10
75.73818102962628
 20
130.6756903493244
 30
0.0
 10
75.21232532381171
 20
130.7683532318599
 30
0.0
 10
74.9472648115023
 20
130.8150604663078
 30
0.0
 11
76.51405213344361
 21
130.4858184220675
 31
0.0
 11
75.74061550003091
 21
130.6662338471352
 31
0.0
 11
74.9472648115023
 21
130.8150604663078
 31
0.0
  0
SPLINE
  5
250
330
1F
100
AcDbEntity
  8
0
  6
Continuous
 62
     7
100
AcDbSpline
210
0.0
220
0.0
230
1.0
 70
     8
 71
     3
 72
     9
 73
     5
 74
     3
 42
0.000000001
 43
0.0000000001
 44
0.00000001
 40
0.0
 40
0.0
 40
0.0
 40
0.0
 40
0.8295939446465349
 40
1.6673125489461
 40
1.6673125489461
 40
1.6673125489461
 40
1.6673125489461
 10
74.99500660197623
 20
130.9111866359019
 30
0.0
 10
74.72164472888858
 20
130.9534216096065
 30
0.0
 10
74.17224380023177
 20
131.0383051670098
 30
0.0
 10
73.61862414138314
 20
131.0888404747163
 30
0.0
 10
73.34046544217142
 20
131.1142312455247
 30
0.0
 11
74.99500660197623
 21
130.9111866359019
 31
0.0
 11
74.1738765524492
 21
131.0293879688145
 31
0.0
 11
73.34046544217142
 21
131.1142312455247
 31
0.0
  0
SPLINE
  5
251
330
1F
100
AcDbEntity
  8
0
  6
Continuous
 62
     7
100
AcDbSpline
210
0.0
220
0.0
230
1.0
 70
     8
 71
     3
 72
     9
 73
     5
 74
     3
 42
0.000000001
 43
0.0000000001
 44
0.00000001
 40
0.0
 40
0.0
 40
0.0
 40
0.0
 40
0.7315726120462384
 40
1.440374069022103
 40
1.440374069022103
 40
1.440374069022103
 40
1.440374069022103
 10
78.77959871517504
 20
118.5192358037086
 30
0.0
 10
79.00339186463749
 20
118.6164045217237
 30
0.0
 10
79.44401230039247
 20
118.8077174723295
 30
0.0
 10
79.86714483777443
 20
119.0350881084955
 30
0.0
 10
80.0753664095692
 20
119.1469761619627
 30
0.0
 11
78.77959871517504
 21
118.5192358037086
 31
0.0
 11
79.44646685722662
 21
118.820043663014
 31
0.0
 11
80.0753664095692
 21
119.1469761619627
 31
0.0
  0
SPLINE
  5
252
330
1F
100
AcDbEntity
  8
0
  6
Continuous
 62
     7
100
AcDbSpline
210
0.0
220
0.0
230
1.0
 70
     8
 71
     3
 72
     9
 73
     5
 74
     3
 42
0.000000001
 43
0.0000000001
 44
0.00000001
 40
0.0
 40
0.0
 40
0.0
 40
0.0
 40
0.761497100890385
 40
1.503651190639893
 40
1.503651190639893
 40
1.503651190639893
 40
1.503651190639893
 10
77.26380660503543
 20
118.0900163736067
 30
0.0
 10
77.5056960482334
 20
118.1672865215921
 30
0.0
 10
77.9833306233945
 20
118.3198640747619
 30
0.0
 10
78.44829821086788
 20
118.5075176812807
 30
0.0
 10
78.67779132308402
 20
118.600137503146
 30
0.0
 11
77.26380660503543
 21
118.0900163736067
 31
0.0
 11
77.98622618617051
 21
118.3308229014144
 31
0.0
 11
78.67779132308402
 21
118.600137503146
 31
0.0
  0
SPLINE
  5
253
330
1F
100
AcDbEntity
  8
0
  6
Continuous
 62
     7
100
AcDbSpline
210
0.0
220
0.0
230
1.0
 70
     8
 71
     3
 72
     9
 73
     5
 74
     3
 42
0.000000001
 43
0.0000000001
 44
0.00000001
 40
0.0
 40
0.0
 40
0.0
 40
0.0
 40
0.8057103430923724
 40
1.595912057489728
 40
1.595912057489728
 40
1.595912057489728
 40
1.595912057489728
 10
75.79985512696771
 20
117.6045064188319
 30
0.0
 10
76.06216922350805
 20
117.6625412875415
 30
0.0
 10
76.5817482872089
 20
117.7774939664622
 30
0.0
 10
77.09231759753983
 20
117.927464850417
 30
0.0
 10
77.34512146498082
 20
118.0017216143209
 30
0.0
 11
75.79985512696771
 21
117.6045064188319
 31
0.0
 11
76.58450098608199
 21
117.7875365614477
 31
0.0
 11
77.34512146498082
 21
118.0017216143209
 31
0.0
  0
SPLINE
  5
254
330
1F
100
AcDbEntity
  8
0
  6
Continuous
 62
     7
100
AcDbSpline
210
0.0
220
0.0
230
1.0
 70
     8
 71
     3
 72
     9
 73
     5
 74
     3
 42
0.000000001
 43
0.0000000001
 44
0.00000001
 40
0.0
 40
0.0
 40
0.0
 40
0.0
 40
0.6751350158031338
 40
1.325999346457334
 40
1.325999346457334
 40
1.325999346457334
 40
1.325999346457334
 10
79.95504805041543
 20
119.2189101419965
 30
0.0
 10
80.15017941087756
 20
119.3313150606982
 30
0.0
 10
80.53342726985997
 20
119.552084027964
 30
0.0
 10
80.89381888454697
 20
119.808452557231
 30
0.0
 10
81.07071643769001
 20
119.9342905845862
 30
0.0
 11
79.95504805041543
 21
119.2189101419965
 31
0.0
 11
80.534516974203
 21
119.5653535808993
 31
0.0
 11
81.07071643769001
 21
119.9342905845862
 31
0.0
  0
SPLINE
  5
255
330
1F
100
AcDbEntity
  8
0
  6
Continuous
 62
     7
100
AcDbSpline
210
0.0
220
0.0
230
1.0
 70
     8
 71
     3
 72
    17
 73
    13
 74
    11
 42
0.000000001
 43
0.0000000001
 44
0.00000001
 40
0.0
 40
0.0
 40
0.0
 40
0.0
 40
0.0663708641080805
 40
0.1380952941695427
 40
0.2105441414319361
 40
0.2764216384249395
 40
0.3412969983783876
 40
0.4040428391340826
 40
0.4383233403574457
 40
0.4786335212580159
 40
0.517762451230012
 40
0.5534313408858307
 40
0.5534313408858307
 40
0.5534313408858307
 40
0.5534313408858307
 10
139.9578315533894
 20
116.8365926700055
 30
0.0
 10
139.9799653298458
 20
116.8371540627187
 30
0.0
 10
140.0260182231646
 20
116.8383221457764
 30
0.0
 10
140.0955442645597
 20
116.8496261780997
 30
0.0
 10
140.1626249733223
 20
116.870798312594
 30
0.0
 10
140.2226188439371
 20
116.9032281668046
 30
0.0
 10
140.2717747254609
 20
116.9459038695174
 30
0.0
 10
140.3030576665246
 20
116.9905832581358
 30
0.0
 10
140.3219911922474
 20
117.0323843001894
 30
0.0
 10
140.3328026332177
 20
117.0688380655824
 30
0.0
 10
140.3390633655988
 20
117.1068247919625
 30
0.0
 10
140.3397477515344
 20
117.1317687438726
 30
0.0
 10
140.3400741084626
 20
117.143663784371
 30
0.0
 11
139.9578315533894
 21
116.8365926700055
 31
0.0
 11
140.0241287126994
 21
116.8397196753253
 31
0.0
 11
140.0949173264926
 21
116.8512681013564
 31
0.0
 11
140.163808637913
 21
116.873691813291
 31
0.0
 11
140.2215470549164
 21
116.9054112077856
 31
0.0
 11
140.2703100777555
 21
116.9482011613255
 31
0.0
 11
140.3063114715175
 21
116.9995912418292
 31
0.0
 11
140.3204857709948
 21
117.0308040927058
 31
0.0
 11
140.332082822965
 21
117.0694100400701
 31
0.0
 11
140.338325521301
 21
117.1080377766116
 31
0.0
 11
140.3400741084626
 21
117.143663784371
 31
0.0
  0
SPLINE
  5
256
330
1F
100
AcDbEntity
  8
0
  6
Continuous
 62
     7
100
AcDbSpline
210
0.0
220
0.0
230
1.0
 70
     8
 71
     3
 72
     9
 73
     5
 74
     3
 42
0.000000001
 43
0.0000000001
 44
0.00000001
 40
0.0
 40
0.0
 40
0.0
 40
0.0
 40
0.7902017143973319
 40
1.595912057489724
 40
1.595912057489724
 40
1.595912057489724
 40
1.595912057489724
 10
134.7372008972299
 20
118.0017216143209
 30
0.0
 10
134.9900047646709
 20
117.927464850417
 30
0.0
 10
135.5005740750018
 20
117.7774939664622
 30
0.0
 10
136.0201531387027
 20
117.6625412875415
 30
0.0
 10
136.282467235243
 20
117.6045064188318
 30
0.0
 11
134.7372008972299
 21
118.0017216143209
 31
0.0
 11
135.4978213761287
 21
117.7875365614477
 31
0.0
 11
136.282467235243
 21
117.6045064188318
 31
0.0
  0
SPLINE
  5
257
330
1F
100
AcDbEntity
  8
0
  6
Continuous
 62
     7
100
AcDbSpline
210
0.0
220
0.0
230
1.0
 70
     8
 71
     3
 72
     9
 73
     5
 74
     3
 42
0.000000001
 43
0.0000000001
 44
0.00000001
 40
0.0
 40
0.0
 40
0.0
 40
0.0
 40
0.837718604570153
 40
1.680898627533265
 40
1.680898627533265
 40
1.680898627533265
 40
1.680898627533265
 10
137.9084458095202
 20
117.3353215591969
 30
0.0
 10
138.1860194815984
 20
117.304207850451
 30
0.0
 10
138.742976439958
 20
117.2417776103148
 30
0.0
 10
139.3027117973696
 20
117.2135606983616
 30
0.0
 10
139.5834887966358
 20
117.1994064125149
 30
0.0
 11
137.9084458095202
 21
117.3353215591969
 31
0.0
 11
138.741856920201
 21
117.2504782838067
 31
0.0
 11
139.5834887966358
 21
117.1994064125149
 31
0.0
  0
SPLINE
  5
258
330
1F
100
AcDbEntity
  8
0
  6
Continuous
 62
     7
100
AcDbSpline
210
0.0
220
0.0
230
1.0
 70
     8
 71
     3
 72
     9
 73
     5
 74
     3
 42
0.000000001
 43
0.0000000001
 44
0.00000001
 40
0.0
 40
0.0
 40
0.0
 40
0.0
 40
0.8071893693355753
 40
1.624931971542656
 40
1.624931971542656
 40
1.624931971542656
 40
1.624931971542656
 10
136.3417068617883
 20
117.6984756809106
 30
0.0
 10
136.6056931768784
 20
117.6460669850604
 30
0.0
 10
137.1371171803955
 20
117.5405644192225
 30
0.0
 10
137.6741811731907
 20
117.4691003886526
 30
0.0
 10
137.9444571707185
 20
117.4331363192703
 30
0.0
 11
136.3417068617883
 21
117.6984756809106
 31
0.0
 11
137.135057551024
 21
117.5496490629944
 31
0.0
 11
137.9444571707185
 21
117.4331363192703
 31
0.0
  0
SPLINE
  5
259
330
1F
100
AcDbEntity
  8
0
  6
Continuous
 62
     7
100
AcDbSpline
210
0.0
220
0.0
230
1.0
 70
     8
 71
     3
 72
     9
 73
     5
 74
     3
 42
0.000000001
 43
0.0000000001
 44
0.00000001
 40
0.0
 40
0.0
 40
0.0
 40
0.0
 40
0.8177426022070907
 40
1.624931971542657
 40
1.624931971542657
 40
1.624931971542657
 40
1.624931971542657
 10
74.13786519149221
 20
117.4331363192703
 30
0.0
 10
74.40814118902
 20
117.4691003886527
 30
0.0
 10
74.9452051818152
 20
117.5405644192225
 30
0.0
 10
75.47662918533229
 20
117.6460669850604
 30
0.0
 10
75.7406155004224
 20
117.6984756809106
 30
0.0
 11
74.13786519149221
 21
117.4331363192703
 31
0.0
 11
74.9472648111867
 21
117.5496490629944
 31
0.0
 11
75.7406155004224
 21
117.6984756809106
 31
0.0
  0
SPLINE
  5
25A
330
1F
100
AcDbEntity
  8
0
  6
Continuous
 62
     7
100
AcDbSpline
210
0.0
220
0.0
230
1.0
 70
     8
 71
     3
 72
    11
 73
     7
 74
     5
 42
0.000000001
 43
0.0000000001
 44
0.00000001
 40
0.0
 40
0.0
 40
0.0
 40
0.0
 40
0.1696989958054601
 40
0.3433920896858234
 40
0.5192947820669852
 40
0.6991137353429081
 40
0.6991137353429081
 40
0.6991137353429081
 40
0.6991137353429081
 10
71.7422482660877
 20
117.2823547643338
 30
0.0
 10
71.79881489132143
 20
117.2825677233923
 30
0.0
 10
71.91327951461419
 20
117.2829986688768
 30
0.0
 10
72.08635306326957
 20
117.2862035548061
 30
0.0
 10
72.26276447533317
 20
117.2908869028166
 30
0.0
 10
72.38126075756684
 20
117.2951950177355
 30
0.0
 10
72.44116118141619
 20
117.2973727974884
 30
0.0
 11
71.7422482660877
 21
117.2823547643338
 31
0.0
 11
71.91194400607995
 21
117.283405969057
 31
0.0
 11
72.08561093485031
 21
117.286420725063
 31
0.0
 11
72.26145041094844
 21
117.2911362170152
 31
0.0
 11
72.44116118141619
 21
117.2973727974884
 31
0.0
  0
SPLINE
  5
25B
330
1F
100
AcDbEntity
  8
0
  6
Continuous
 62
     7
100
AcDbSpline
210
0.0
220
0.0
230
1.0
 70
     8
 71
     3
 72
     9
 73
     5
 74
     3
 42
0.000000001
 43
0.0000000001
 44
0.00000001
 40
0.0
 40
0.0
 40
0.0
 40
0.0
 40
0.0228136584098342
 40
0.0456253429456971
 40
0.0456253429456971
 40
0.0456253429456971
 40
0.0456253429456971
 10
72.44116118141619
 20
117.2973727974884
 30
0.0
 10
72.44876012595782
 20
117.2976648374593
 30
0.0
 10
72.46395735678915
 20
117.2982489121182
 30
0.0
 10
72.4791535982742
 20
117.2988581845252
 30
0.0
 10
72.48675138990671
 20
117.299162817541
 30
0.0
 11
72.44116118141619
 21
117.2973727974884
 31
0.0
 11
72.46395776729622
 21
117.2982552273766
 31
0.0
 11
72.48675138990671
 21
117.299162817541
 31
0.0
  0
SPLINE
  5
25C
330
1F
100
AcDbEntity
  8
0
  6
Continuous
 62
     7
100
AcDbSpline
210
0.0
220
0.0
230
1.0
 70
     8
 71
     3
 72
     9
 73
     5
 74
     3
 42
0.000000001
 43
0.0000000001
 44
0.00000001
 40
0.0
 40
0.0
 40
0.0
 40
0.0
 40
0.8431800229632253
 40
1.680898627533378
 40
1.680898627533378
 40
1.680898627533378
 40
1.680898627533378
 10
72.4988335655749
 20
117.1994064125149
 30
0.0
 10
72.77961056484115
 20
117.2135606983616
 30
0.0
 10
73.33934592225278
 20
117.2417776103148
 30
0.0
 10
73.89630288061245
 20
117.304207850451
 30
0.0
 10
74.17387655269061
 20
117.3353215591969
 30
0.0
 11
72.4988335655749
 21
117.1994064125149
 31
0.0
 11
73.34046544200984
 21
117.2504782838067
 31
0.0
 11
74.17387655269061
 21
117.3353215591969
 31
0.0
  0
SPLINE
  5
25D
330
1F
100
AcDbEntity
  8
0
  6
Continuous
 62
     7
100
AcDbSpline
210
0.0
220
0.0
230
1.0
 70
     8
 71
     3
 72
    11
 73
     7
 74
     5
 42
0.000000001
 43
0.0000000001
 44
0.00000001
 40
0.0
 40
0.0
 40
0.0
 40
0.0
 40
0.1798189527289342
 40
0.3557216451918518
 40
0.5294147391756325
 40
0.6991137350340022
 40
0.6991137350340022
 40
0.6991137350340022
 40
0.6991137350340022
 10
139.6411611811054
 20
117.2973727974766
 30
0.0
 10
139.7010616047725
 20
117.2951950177304
 30
0.0
 10
139.8195578868512
 20
117.2908869028171
 30
0.0
 10
139.9959692987943
 20
117.2862035548094
 30
0.0
 10
140.1690428475289
 20
117.2829986688771
 30
0.0
 10
140.2835074708738
 20
117.2825677233925
 30
0.0
 10
140.3400740961252
 20
117.2823547643338
 30
0.0
 11
139.6411611811054
 21
117.2973727974766
 31
0.0
 11
139.8208719510264
 21
117.2911362170219
 31
0.0
 11
139.9967114272063
 21
117.2864207250664
 31
0.0
 11
140.17037835608
 21
117.2834059690576
 31
0.0
 11
140.3400740961252
 21
117.2823547643338
 31
0.0
  0
SPLINE
  5
25E
330
1F
100
AcDbEntity
  8
0
  6
Continuous
 62
     7
100
AcDbSpline
210
0.0
220
0.0
230
1.0
 70
     8
 71
     3
 72
     9
 73
     5
 74
     3
 42
0.000000001
 43
0.0000000001
 44
0.00000001
 40
0.0
 40
0.0
 40
0.0
 40
0.0
 40
0.0228116845152941
 40
0.0456253432567978
 40
0.0456253432567978
 40
0.0456253432567978
 40
0.0456253432567978
 10
139.595570972304
 20
117.299162817541
 30
0.0
 10
139.6031687639297
 20
117.2988581845255
 30
0.0
 10
139.6183650055183
 20
117.2982489121144
 30
0.0
 10
139.6335622364533
 20
117.2976648374517
 30
0.0
 10
139.6411611811054
 20
117.2973727974766
 30
0.0
 11
139.595570972304
 21
117.299162817541
 31
0.0
 11
139.6183645948939
 21
117.2982552273775
 31
0.0
 11
139.6411611811054
 21
117.2973727974766
 31
0.0
  0
SPLINE
  5
25F
330
1F
100
AcDbEntity
  8
0
  6
Continuous
 62
     7
100
AcDbSpline
210
0.0
220
0.0
230
1.0
 70
     8
 71
     3
 72
    13
 73
     9
 74
     7
 42
0.000000001
 43
0.0000000001
 44
0.00000001
 40
0.0
 40
0.0
 40
0.0
 40
0.0
 40
0.6824889800036157
 40
1.371552288772267
 40
2.071856826354242
 40
2.784921001841726
 40
3.508853816059526
 40
4.238987884024533
 40
4.238987884024533
 40
4.238987884024533
 40
4.238987884024533
 10
138.2911611811053
 20
110.9617476273306
 30
0.0
 10
138.2724443250971
 20
111.189982774906
 30
0.0
 10
138.2348303018323
 20
111.6486516278972
 30
0.0
 10
137.9385099265453
 20
112.2871062382761
 30
0.0
 10
137.4896419124048
 20
112.8342522494243
 30
0.0
 10
136.9020915983981
 20
113.2494269172499
 30
0.0
 10
136.2210962085065
 20
113.521326474904
 30
0.0
 10
135.7351636535772
 20
113.5555867048449
 30
0.0
 10
135.4911611811052
 20
113.572789868516
 30
0.0
 11
138.2911611811053
 21
110.9617476273306
 31
0.0
 11
138.1957527736547
 21
111.6375349067477
 31
0.0
 11
137.9160323117016
 21
112.2672687479233
 31
0.0
 11
137.4710596405751
 21
112.8080328098069
 31
0.0
 11
136.8911611811053
 21
113.2229765385514
 31
0.0
 11
136.2158543141849
 21
113.4838200892241
 31
0.0
 11
135.4911611811052
 21
113.572789868516
 31
0.0
  0
SPLINE
  5
260
330
1F
100
AcDbEntity
  8
0
  6
Continuous
 62
     7
100
AcDbSpline
210
0.0
220
0.0
230
1.0
 70
     8
 71
     3
 72
    13
 73
     9
 74
     7
 42
0.000000001
 43
0.0000000001
 44
0.00000001
 40
0.0
 40
0.0
 40
0.0
 40
0.0
 40
0.7301340679650081
 40
1.454066882182795
 40
2.167131057670356
 40
2.867435595252374
 40
3.55649890402102
 40
4.238987884024628
 40
4.238987884024628
 40
4.238987884024628
 40
4.238987884024628
 10
76.59116118110529
 20
113.572789868516
 30
0.0
 10
76.34715870863332
 20
113.5555867048449
 30
0.0
 10
75.86122615370402
 20
113.521326474904
 30
0.0
 10
75.18023076381238
 20
113.2494269172499
 30
0.0
 10
74.5926804498057
 20
112.8342522494242
 30
0.0
 10
74.14381243566493
 20
112.2871062382761
 30
0.0
 10
73.84749206037804
 20
111.6486516278971
 30
0.0
 10
73.80987803711324
 20
111.189982774906
 30
0.0
 10
73.79116118110511
 20
110.9617476273306
 30
0.0
 11
76.59116118110529
 21
113.572789868516
 31
0.0
 11
75.86646804802558
 21
113.4838200892241
 31
0.0
 11
75.1911611811052
 21
113.2229765385514
 31
0.0
 11
74.61126272163533
 21
112.8080328098069
 31
0.0
 11
74.16629005050874
 21
112.2672687479233
 31
0.0
 11
73.88656958855566
 21
111.6375349067477
 31
0.0
 11
73.79116118110511
 21
110.9617476273306
 31
0.0
  0
ARC
  5
261
102
{ACAD_REACTORS
330
2AD
102
}
330
1F
100
AcDbEntity
  8
1
  6
Continuous
 62
     7
100
AcDbCircle
 10
278.6763006887427
 20
12.83333333333326
 30
0.0
 40
0.166666666666709
100
AcDbArc
 50
209.9999999999622
 51
330.000000000028
  0
ARC
  5
262
102
{ACAD_REACTORS
330
2AE
102
}
330
1F
100
AcDbEntity
  8
1
  6
Continuous
 62
     7
100
AcDbCircle
 10
276.3429673554093
 20
10.2700211480327
 30
0.0
 40
0.6666666666666288
100
AcDbArc
 50
180.0000000000104
 51
240.018360631158
  0
ARC
  5
263
330
1F
100
AcDbEntity
  8
1
  6
Continuous
 62
     7
100
AcDbCircle
 10
270.3431524891828
 20
12.5
 30
0.0
 40
0.1666666666666123
100
AcDbArc
 50
119.9816393688877
 51
240.0183606311327
  0
ARC
  5
264
330
1F
100
AcDbEntity
  8
1
  6
Continuous
 62
     7
100
AcDbCircle
 10
287.0094488883026
 20
12.5
 30
0.0
 40
0.1666666666666302
100
AcDbArc
 50
299.9816393688164
 51
60.01836063116308
  0
ARC
  5
265
102
{ACAD_REACTORS
330
2B0
102
}
330
1F
100
AcDbEntity
  8
1
  6
Continuous
 62
     7
100
AcDbCircle
 10
281.3429673554093
 20
14.92250016016737
 30
0.0
 40
0.3333333333333456
100
AcDbArc
 50
60.01836063115814
 51
180.0
  0
ARC
  5
266
102
{ACAD_REACTORS
330
2B0
102
}
330
1F
100
AcDbEntity
  8
1
  6
Continuous
 62
     7
100
AcDbCircle
 10
281.3429673554093
 20
10.07749983983263
 30
0.0
 40
0.3333333333332007
100
AcDbArc
 50
180.0
 51
299.9816393688419
  0
MTEXT
  5
268
330
1F
100
AcDbEntity
  8
1
 62
     7
100
AcDbMText
 10
144.2763006887427
 20
12.5
 30
0.0
 40
4.5
 41
0.0
 71
     4
 72
     1
  1
JPI 15 L\PBulkhead housing 1 lev. - JEI
  7
CONVERTER_11
 73
     1
 44
0.90036014405762
  0
MTEXT
  5
26A
330
1F
100
AcDbEntity
  8
1
 62
     7
100
AcDbMText
 10
221.5911785372397
 20
93.83120387153488
 30
0.0
 40
3.5
 41
0.0
 71
     2
 72
     1
  1
 
  7
CONVERTER_12
 73
     1
 44
1.32052821128451
  0
MTEXT
  5
26B
330
1F
100
AcDbEntity
  8
1
 62
     7
100
AcDbMText
 10
256.6763006887427
 20
10.06063942075605
 30
0.0
 40
4.5
 41
0.0
 71
     5
 72
     1
  1
1:1
  7
CONVERTER_11
 73
     1
 44
1.32052821128451
  0
MTEXT
  5
26C
330
1F
100
AcDbEntity
  8
1
 62
     7
100
AcDbMText
 10
119.6
 20
7.49999999999987
 30
0.0
 40
3.0
 41
0.0
 71
     4
 72
     1
  1
M.Pezzimenti
  7
CONVERTER_11
 73
     1
 44
1.32052821128451
  0
MTEXT
  5
26D
330
1F
100
AcDbEntity
  8
1
 62
     7
100
AcDbMText
 10
119.6
 20
12.49999999999987
 30
0.0
 40
3.0
 41
0.0
 71
     4
 72
     1
  1
14/05/15
  7
CONVERTER_11
 73
     1
 44
1.32052821128451
  0
MTEXT
  5
26E
330
1F
100
AcDbEntity
  8
1
 62
     7
100
AcDbMText
 10
109.0
 20
7.49999999999987
 30
0.0
 40
3.0
 41
0.0
 71
     4
 72
     1
  1
Sign.
  7
CONVERTER_11
 73
     1
 44
1.32052821128451
  0
MTEXT
  5
26F
330
1F
100
AcDbEntity
  8
1
 62
     7
100
AcDbMText
 10
109.0
 20
12.49999999999987
 30
0.0
 40
3.0
 41
0.0
 71
     4
 72
     1
  1
Date
  7
CONVERTER_11
 73
     1
 44
1.32052821128451
  0
MTEXT
  5
271
330
1F
100
AcDbEntity
  8
1
 62
     7
100
AcDbMText
 10
123.0
 20
17.49999999999994
 30
0.0
 40
2.5
 41
0.0
 71
     5
 72
     1
  1
dimensions in mm
  7
CONVERTER_13
 73
     1
 44
0.60024009603842
  0
MTEXT
  5
272
330
1F
100
AcDbEntity
  8
1
 62
     7
100
AcDbMText
 10
151.4999999999997
 20
194.0000000000001
 30
0.0
 40
4.0
 41
0.0
 71
     5
 72
     1
  1
Diritti riservati      All rights reserved
  7
CONVERTER_11
 73
     1
 44
1.32052821128451
  0
MTEXT
  5
273
330
1F
100
AcDbEntity
  8
1
 62
     7
100
AcDbMText
 10
256.6763006887427
 20
16.26063942075598
 30
0.0
 40
3.0
 41
0.0
 71
     5
 72
     1
  1
Scale
  7
CONVERTER_11
 73
     1
 44
1.32052821128451
  0
DIMENSION
  5
27E
330
1F
100
AcDbEntity
  8
1
100
AcDbDimension
  2
*D2
 10
177.830059421251
 20
115.182354764336
 30
0.0
 11
174.330059421251
 21
101.782354764336
 31
0.0
 70
    32
  1
27
 71
     5
 42
-1.0
 53
90.0
  3
ME10_DIM_10
100
AcDbAlignedDimension
 13
194.4411783252627
 23
88.38235476433601
 33
0.0
 14
195.7411783252626
 24
115.182354764336
 34
0.0
 50
90.0
100
AcDbRotatedDimension
  0
DIMENSION
  5
289
330
1F
100
AcDbEntity
  8
1
100
AcDbDimension
  2
*D3
 10
194.4411783252627
 20
73.12586068582999
 30
0.0
 11
210.4411783252627
 21
76.62586068582999
 31
0.0
 70
    32
  1
<>
 71
     5
 42
-1.0
 53
0.00013888888889
  3
ME10_DIM_11
100
AcDbAlignedDimension
 13
226.4411783252627
 23
88.38235476433601
 33
0.0
 14
194.4411783252627
 24
88.38235476433601
 34
0.0
100
AcDbRotatedDimension
  0
DIMENSION
  5
296
330
1F
100
AcDbEntity
  8
1
100
AcDbDimension
  2
*D4
 10
239.526935081202
 20
88.38235476433601
 30
0.0
 11
235.876935081202
 21
82.5173062427348
 31
0.0
 70
    32
  1
<>
 71
     5
 42
-1.0
 53
90.0
  3
ME10_DIM_12
100
AcDbAlignedDimension
 13
226.4411783252627
 23
91.88235476433601
 33
0.0
 14
226.4411783252627
 24
88.38235476433601
 34
0.0
 50
90.0
100
AcDbRotatedDimension
  0
DIMENSION
  5
2A1
330
1F
100
AcDbEntity
  8
1
100
AcDbDimension
  2
*D5
 10
195.7411783252626
 20
152.4702171543729
 30
0.0
 11
222.1061057165411
 21
155.9702171543729
 31
0.0
 70
    32
  1
55
 71
     5
 42
-1.0
 53
0.00013888888889
  3
ME10_DIM_13
100
AcDbAlignedDimension
 13
248.4710331078196
 23
102.582354764336
 33
0.0
 14
195.7411783252626
 24
115.182354764336
 34
0.0
100
AcDbRotatedDimension
  0
DIMENSION
  5
2AC
330
1F
100
AcDbEntity
  8
1
100
AcDbDimension
  2
*D6
 10
64.5411611811053
 20
73.12586068583
 30
0.0
 11
106.0411611811053
 21
76.62586068583
 31
0.0
 70
    32
  1
<>
 71
     5
 42
-1.0
 53
0.00013888888889
  3
ME10_DIM_14
100
AcDbAlignedDimension
 13
147.5411611811053
 23
88.38235476433601
 33
0.0
 14
64.54116118110522
 24
88.38235476433601
 34
0.0
100
AcDbRotatedDimension
  0
HATCH
  5
2AD
330
1F
100
AcDbEntity
  8
1
  6
Continuous
 62
     7
100
AcDbHatch
 10
0.0
 20
0.0
 30
0.0
210
0.0
220
0.0
230
1.0
  2
SOLID
 70
     1
 71
     1
 91
        1
 92
        1
 93
       16
 72
     2
 10
280.078001142934
 20
15.73121731203457
 40
0.2649662124753149
 50
210.0000000000315
 51
360.0
 73
     0
 72
     1
 10
280.3429673554093
 20
15.73121731203457
 11
280.3429673554093
 21
9.308269070601796
 72
     2
 10
280.0096340220761
 20
9.308269070601796
 40
0.3333333333334281
 50
0.0
 51
180.0
 73
     0
 72
     1
 10
279.6763006887427
 20
9.308269070601796
 11
279.6763006887427
 21
12.5
 72
     1
 10
279.6763006887427
 20
12.5
 11
279.6763006887427
 21
14.23205080756884
 72
     1
 10
279.6763006887427
 20
14.23205080756884
 11
278.8206382560401
 21
12.75
 72
     2
 10
278.6763006887427
 20
12.83333333333326
 40
0.166666666666709
 50
29.99999999997198
 51
150.0000000000378
 73
     0
 72
     1
 10
278.5319631214452
 20
12.75
 11
277.6763006887427
 21
14.23205080756884
 72
     1
 10
277.6763006887427
 20
14.23205080756884
 11
277.6763006887427
 21
12.5
 72
     1
 10
277.6763006887427
 20
12.5
 11
277.6763006887427
 21
10.84758507263291
 72
     2
 10
277.3429673554093
 20
10.84758507263291
 40
0.3333333333334281
 50
0.0
 51
180.0
 73
     0
 72
     1
 10
277.0096340220759
 20
10.84758507263291
 11
277.0096340220759
 21
12.5
 72
     1
 10
277.0096340220759
 20
12.5
 11
277.0096340220759
 21
15.73121731203457
 72
     2
 10
277.2746002345513
 20
15.73121731203457
 40
0.2649662124752854
 50
180.0
 51
329.9999999999808
 73
     0
 72
     1
 10
277.5040677056994
 20
15.86370041827229
 11
278.6763006887427
 21
13.83333333333326
 72
     1
 10
278.6763006887427
 20
13.83333333333326
 11
279.848533671786
 21
15.86370041827229
 97
       16
330
1A3
330
211
330
1A2
330
1A4
330
212
330
1A5
330
19D
330
19C
330
261
330
19B
330
19A
330
1A6
330
213
330
1A7
330
214
330
1A8
 75
     0
 76
     1
 98
        1
 10
0.0
 20
0.0
  0
HATCH
  5
2AE
330
1F
100
AcDbEntity
  8
1
  6
Continuous
 62
     7
100
AcDbHatch
 10
0.0
 20
0.0
 30
0.0
210
0.0
220
0.0
230
1.0
  2
SOLID
 70
     1
 71
     1
 91
        1
 92
        1
 93
        7
 72
     2
 10
276.0096340220759
 20
14.92250016016737
 40
0.3333333333334281
 50
0.0
 51
180.0
 73
     1
 72
     1
 10
275.6763006887427
 20
14.92250016016737
 11
275.6763006887427
 21
10.27002114803258
 72
     2
 10
276.3429673554093
 20
10.2700211480327
 40
0.6666666666666288
 50
180.0000000000104
 51
240.018360631158
 73
     1
 72
     1
 10
276.009819053083
 20
9.692564090666906
 11
278.1763932042461
 21
8.442617464995806
 72
     2
 10
278.3429673554093
 20
8.731345993678701
 40
0.3333333333333709
 50
240.0183606311493
 51
420.0183606311578
 73
     1
 72
     1
 10
278.5095415065725
 20
9.020074522361597
 11
276.3429673554093
 21
10.2700211480327
 72
     1
 10
276.3429673554093
 20
10.2700211480327
 11
276.3429673554093
 21
14.92250016016737
 97
        7
330
215
330
1A9
330
262
330
1AC
330
216
330
1AB
330
1AA
 75
     0
 76
     1
 98
        1
 10
0.0
 20
0.0
  0
HATCH
  5
2AF
330
1F
100
AcDbEntity
  8
1
  6
Continuous
 62
     7
100
AcDbHatch
 10
0.0
 20
0.0
 30
0.0
210
0.0
220
0.0
230
1.0
  2
SOLID
 70
     1
 71
     1
 91
        1
 92
        1
 93
        5
 72
     2
 10
274.6763006887427
 20
14.15326939093666
 40
0.3333333333332007
 50
0.0
 51
180.0
 73
     1
 72
     1
 10
274.3429673554093
 20
14.15326939093666
 11
274.3429673554093
 21
10.84673060906323
 72
     2
 10
274.6763006887427
 20
10.84673060906323
 40
0.3333333333333712
 50
180.0
 51
360.0
 73
     1
 72
     1
 10
275.0096340220759
 20
10.84673060906323
 11
275.0096340220759
 21
11.0392519172633
 72
     1
 10
275.0096340220759
 20
11.0392519172633
 11
275.0096340220759
 21
14.15326939093666
 97
        5
330
217
330
1AF
330
218
330
1AE
330
1AD
 75
     0
 76
     1
 98
        1
 10
0.0
 20
0.0
  0
HATCH
  5
2B0
330
1F
100
AcDbEntity
  8
1
  6
Continuous
 62
     7
100
AcDbHatch
 10
0.0
 20
0.0
 30
0.0
210
0.0
220
0.0
230
1.0
  2
SOLID
 70
     1
 71
     1
 91
        1
 92
        1
 93
       14
 72
     2
 10
281.3429673554093
 20
14.92250016016737
 40
0.3333333333333456
 50
60.01836063115814
 51
180.0
 73
     1
 72
     1
 10
281.0096340220761
 20
14.92250016016737
 11
281.0096340220761
 21
10.07749983983263
 72
     2
 10
281.3429673554093
 20
10.07749983983263
 40
0.3333333333332007
 50
180.0
 51
299.9816393688419
 73
     1
 72
     1
 10
281.5095415065725
 20
9.78877131114973
 11
282.8428748399058
 21
10.55800208038033
 72
     2
 10
282.6763006887427
 20
10.84673060906323
 40
0.3333333333333172
 50
299.9816393688334
 51
479.9816393688322
 73
     1
 72
     1
 10
282.5097265375795
 20
11.13545913774624
 11
281.6763006887427
 21
10.65463653264794
 72
     1
 10
281.6763006887427
 20
10.65463653264794
 11
281.6763006887427
 21
12.16666666666663
 72
     1
 10
281.6763006887427
 20
12.16666666666663
 11
282.6763006887427
 21
12.16666666666663
 72
     2
 10
282.6763006887427
 20
12.5
 40
0.3333333333333695
 50
270.0
 51
450.0
 73
     1
 72
     1
 10
282.6763006887427
 20
12.83333333333326
 11
281.6763006887427
 21
12.83333333333326
 72
     1
 10
281.6763006887427
 20
12.83333333333326
 11
281.6763006887427
 21
14.34536346735195
 72
     1
 10
281.6763006887427
 20
14.34536346735195
 11
282.5097265375795
 21
13.86454086225376
 72
     2
 10
282.6763006887427
 20
14.15326939093666
 40
0.3333333333333471
 50
240.0183606311583
 51
420.0183606311564
 73
     1
 72
     1
 10
282.8428748399058
 20
14.44199791961944
 11
281.5095415065725
 21
15.21122868885027
 97
       14
330
219
330
1B1
330
1B2
330
1B3
330
21A
330
1B4
330
1B5
330
1B6
330
21B
330
1B7
330
266
330
199
330
265
330
1B0
 75
     0
 76
     1
 98
        1
 10
0.0
 20
0.0
  0
ENDSEC
  0
SECTION
  2
OBJECTS
  0
DICTIONARY
  5
C
330
0
100
AcDbDictionary
281
     1
  3
ACAD_GROUP
350
D
  3
ACAD_LAYOUT
350
1A
  3
ACAD_MATERIAL
350
3B
  3
ACAD_MLEADERSTYLE
350
2B3
  3
ACAD_MLINESTYLE
350
17
  3
ACAD_PLOTSETTINGS
350
19
  3
ACAD_PLOTSTYLENAME
350
E
  3
ACAD_VISUALSTYLE
350
2A
  3
AcDbVariableDictionary
350
2B1
  0
DICTIONARY
  5
D
102
{ACAD_REACTORS
330
C
102
}
330
C
100
AcDbDictionary
281
     1
  0
DICTIONARY
  5
1A
102
{ACAD_REACTORS
330
C
102
}
330
C
100
AcDbDictionary
281
     1
  3
Layout1
350
1E
  3
Layout2
350
26
  3
Model
350
22
  0
DICTIONARY
  5
3B
102
{ACAD_REACTORS
330
C
102
}
330
C
100
AcDbDictionary
281
     1
  3
ByBlock
350
3D
  3
ByLayer
350
3C
  3
Global
350
3E
  0
DICTIONARY
  5
2B3
102
{ACAD_REACTORS
330
C
102
}
330
C
100
AcDbDictionary
281
     1
  0
DICTIONARY
  5
17
102
{ACAD_REACTORS
330
C
102
}
330
C
100
AcDbDictionary
281
     1
  3
Standard
350
18
  0
DICTIONARY
  5
19
102
{ACAD_REACTORS
330
C
102
}
330
C
100
AcDbDictionary
281
     1
  0
ACDBDICTIONARYWDFLT
  5
E
102
{ACAD_REACTORS
330
C
102
}
330
C
100
AcDbDictionary
281
     1
  3
Normal
350
F
100
AcDbDictionaryWithDefault
340
F
  0
DICTIONARY
  5
2A
102
{ACAD_REACTORS
330
C
102
}
330
C
100
AcDbDictionary
281
     1
  3
2dWireframe
350
2F
  3
3D Hidden
350
31
  3
3dWireframe
350
30
  3
Basic
350
32
  3
Brighten
350
36
  3
ColorChange
350
3A
  3
Conceptual
350
34
  3
Dim
350
35
  3
Facepattern
350
39
  3
Flat
350
2B
  3
FlatWithEdges
350
2C
  3
Gouraud
350
2D
  3
GouraudWithEdges
350
2E
  3
Linepattern
350
38
  3
Realistic
350
33
  3
Thicken
350
37
  0
DICTIONARY
  5
2B1
102
{ACAD_REACTORS
330
C
102
}
330
C
100
AcDbDictionary
281
     1
  3
DIMASSOC
350
2B4
  3
HIDETEXT
350
2B5
  0
LAYOUT
  5
1E
102
{ACAD_REACTORS
330
1A
102
}
330
1A
100
AcDbPlotSettings
  1

  2
none_device
  4

  6

 40
0.0
 41
0.0
 42
0.0
 43
0.0
 44
0.0
 45
0.0
 46
0.0
 47
0.0
 48
0.0
 49
0.0
140
0.0
141
0.0
142
1.0
143
1.0
 70
   688
 72
     0
 73
     0
 74
     5
  7

 75
    16
147
1.0
148
0.0
149
0.0
100
AcDbLayout
  1
Layout1
 70
     1
 71
     1
 10
0.0
 20
0.0
 11
12.0
 21
9.0
 12
0.0
 22
0.0
 32
0.0
 14
1.00000000000000E+20
 24
1.00000000000000E+20
 34
1.00000000000000E+20
 15
-1.00000000000000E+20
 25
-1.00000000000000E+20
 35
-1.00000000000000E+20
146
0.0
 13
0.0
 23
0.0
 33
0.0
 16
1.0
 26
0.0
 36
0.0
 17
0.0
 27
1.0
 37
0.0
 76
     0
330
1B
  0
LAYOUT
  5
26
102
{ACAD_REACTORS
330
1A
102
}
330
1A
100
AcDbPlotSettings
  1

  2
none_device
  4

  6

 40
0.0
 41
0.0
 42
0.0
 43
0.0
 44
0.0
 45
0.0
 46
0.0
 47
0.0
 48
0.0
 49
0.0
140
0.0
141
0.0
142
1.0
143
1.0
 70
   688
 72
     0
 73
     0
 74
     5
  7

 75
    16
147
1.0
148
0.0
149
0.0
100
AcDbLayout
  1
Layout2
 70
     1
 71
     2
 10
0.0
 20
0.0
 11
0.0
 21
0.0
 12
0.0
 22
0.0
 32
0.0
 14
0.0
 24
0.0
 34
0.0
 15
0.0
 25
0.0
 35
0.0
146
0.0
 13
0.0
 23
0.0
 33
0.0
 16
1.0
 26
0.0
 36
0.0
 17
0.0
 27
1.0
 37
0.0
 76
     0
330
23
  0
LAYOUT
  5
22
102
{ACAD_REACTORS
330
1A
102
}
330
1A
100
AcDbPlotSettings
  1

  2
none_device
  4

  6

 40
0.0
 41
0.0
 42
0.0
 43
0.0
 44
0.0
 45
0.0
 46
0.0
 47
0.0
 48
0.0
 49
0.0
140
0.0
141
0.0
142
1.0
143
1.0
 70
  1712
 72
     0
 73
     0
 74
     0
  7

 75
     0
147
1.0
148
0.0
149
0.0
100
AcDbLayout
  1
Model
 70
     1
 71
     0
 10
0.0
 20
0.0
 11
12.0
 21
9.0
 12
0.0
 22
0.0
 32
0.0
 14
-0.00000000000011
 24
0.0
 34
0.0
 15
297.0
 25
210.0000000000001
 35
0.0
146
0.0
 13
0.0
 23
0.0
 33
0.0
 16
1.0
 26
0.0
 36
0.0
 17
0.0
 27
1.0
 37
0.0
 76
     0
330
1F
331
29
  0
MATERIAL
  5
3D
102
{ACAD_REACTORS
330
3B
102
}
102
{ACAD_XDICTIONARY
360
2D8
102
}
330
3B
100
AcDbMaterial
  1
ByBlock
  0
MATERIAL
  5
3C
102
{ACAD_REACTORS
330
3B
102
}
102
{ACAD_XDICTIONARY
360
2D6
102
}
330
3B
100
AcDbMaterial
  1
ByLayer
  0
MATERIAL
  5
3E
102
{ACAD_REACTORS
330
3B
102
}
102
{ACAD_XDICTIONARY
360
2DA
102
}
330
3B
100
AcDbMaterial
  1
Global
  0
MLINESTYLE
  5
18
102
{ACAD_REACTORS
330
17
102
}
330
17
100
AcDbMlineStyle
  2
Standard
 70
     0
  3

 62
   256
 51
90.0
 52
90.0
 71
     2
 49
0.5
 62
   256
  6
BYLAYER
 49
-0.5
 62
   256
  6
BYLAYER
  0
ACDBPLACEHOLDER
  5
F
102
{ACAD_REACTORS
330
E
102
}
330
E
  0
VISUALSTYLE
  5
2F
102
{ACAD_REACTORS
330
2A
102
}
102
{ACAD_XDICTIONARY
360
2BE
102
}
330
2A
100
AcDbVisualStyle
  2
2dWireframe
 70
     4
 71
     0
 72
     2
 73
     0
 90
        0
 40
-0.6
 41
-30.0
 62
     5
 63
     7
 74
     1
 91
        4
 64
     7
 65
   257
 75
     1
175
     1
 42
1.0
 92
        0
 66
   257
 43
1.0
 76
     1
 77
     6
 78
     2
 67
     7
 79
     5
170
     0
171
     0
290
     0
174
     0
 93
        1
 44
0.0
173
     0
291
     0
 45
0.0
1001
ACAD
1000
AcDbSavedByObjectVersion
1070
     0
  0
VISUALSTYLE
  5
31
102
{ACAD_REACTORS
330
2A
102
}
102
{ACAD_XDICTIONARY
360
2C2
102
}
330
2A
100
AcDbVisualStyle
  2
3D Hidden
 70
     6
 71
     1
 72
     2
 73
     2
 90
        0
 40
-0.6
 41
-30.0
 62
     5
 63
     7
 74
     2
 91
        2
 64
     7
 65
   257
 75
     2
175
     1
 42
40.0
 92
        0
 66
   257
 43
1.0
 76
     1
 77
     6
 78
     2
 67
     7
 79
     3
170
     0
171
     0
290
     0
174
     0
 93
        1
 44
0.0
173
     0
291
     0
 45
0.0
1001
ACAD
1000
AcDbSavedByObjectVersion
1070
     0
  0
VISUALSTYLE
  5
30
102
{ACAD_REACTORS
330
2A
102
}
102
{ACAD_XDICTIONARY
360
2C0
102
}
330
2A
100
AcDbVisualStyle
  2
3dWireframe
 70
     5
 71
     0
 72
     2
 73
     0
 90
        0
 40
-0.6
 41
-30.0
 62
     5
 63
     7
 74
     1
 91
        4
 64
     7
 65
   257
 75
     1
175
     1
 42
1.0
 92
        0
 66
   257
 43
1.0
 76
     1
 77
     6
 78
     2
 67
     7
 79
     5
170
     0
171
     0
290
     0
174
     0
 93
        1
 44
0.0
173
     0
291
     0
 45
0.0
1001
ACAD
1000
AcDbSavedByObjectVersion
1070
     0
  0
VISUALSTYLE
  5
32
102
{ACAD_REACTORS
330
2A
102
}
102
{ACAD_XDICTIONARY
360
2C4
102
}
330
2A
100
AcDbVisualStyle
  2
Basic
 70
     7
 71
     1
 72
     0
 73
     1
 90
        0
 40
-0.6
 41
-30.0
 62
     5
 63
     7
 74
     0
 91
        4
 64
     7
 65
   257
 75
     1
175
     1
 42
1.0
 92
        8
 66
     7
 43
1.0
 76
     1
 77
     6
 78
     2
 67
     7
 79
     5
170
     0
171
     0
290
     0
174
     0
 93
        1
 44
0.0
173
     0
291
     1
 45
0.0
1001
ACAD
1000
AcDbSavedByObjectVersion
1070
     0
  0
VISUALSTYLE
  5
36
102
{ACAD_REACTORS
330
2A
102
}
102
{ACAD_XDICTIONARY
360
2CC
102
}
330
2A
100
AcDbVisualStyle
  2
Brighten
 70
    12
 71
     2
 72
     2
 73
     0
 90
        0
 40
-0.6
 41
-30.0
 62
     5
 63
     7
 74
     1
 91
        4
 64
     7
 65
   257
 75
     1
175
     1
 42
1.0
 92
        8
 66
     7
 43
1.0
 76
     1
 77
     6
 78
     2
 67
     7
 79
     5
170
     0
171
     0
290
     0
174
     0
 93
        1
 44
50.0
173
     0
291
     1
 45
0.0
1001
ACAD
1000
AcDbSavedByObjectVersion
1070
     0
  0
VISUALSTYLE
  5
3A
102
{ACAD_REACTORS
330
2A
102
}
102
{ACAD_XDICTIONARY
360
2D4
102
}
330
2A
100
AcDbVisualStyle
  2
ColorChange
 70
    16
 71
     2
 72
     2
 73
     3
 90
        0
 40
-0.6
 41
-30.0
 62
     5
 63
     8
 74
     1
 91
        4
 64
     7
 65
   257
 75
     1
175
     1
 42
1.0
 92
        8
 66
     8
 43
1.0
 76
     1
 77
     6
 78
     2
 67
     7
 79
     5
170
     0
171
     0
290
     0
174
     0
 93
        1
 44
0.0
173
     0
291
     1
 45
0.0
1001
ACAD
1000
AcDbSavedByObjectVersion
1070
     0
  0
VISUALSTYLE
  5
34
102
{ACAD_REACTORS
330
2A
102
}
102
{ACAD_XDICTIONARY
360
2C8
102
}
330
2A
100
AcDbVisualStyle
  2
Conceptual
 70
     9
 71
     3
 72
     2
 73
     0
 90
        0
 40
-0.6
 41
-30.0
 62
     5
 63
     7
 74
     2
 91
        2
 64
     7
 65
   257
 75
     1
175
     1
 42
40.0
 92
        8
 66
     7
 43
1.0
 76
     1
 77
     6
 78
     2
 67
     7
 79
     3
170
     0
171
     0
290
     0
174
     0
 93
        1
 44
0.0
173
     0
291
     0
 45
0.0
1001
ACAD
1000
AcDbSavedByObjectVersion
1070
     0
  0
VISUALSTYLE
  5
35
102
{ACAD_REACTORS
330
2A
102
}
102
{ACAD_XDICTIONARY
360
2CA
102
}
330
2A
100
AcDbVisualStyle
  2
Dim
 70
    11
 71
     2
 72
     2
 73
     0
 90
        0
 40
-0.6
 41
-30.0
 62
     5
 63
     7
 74
     1
 91
        4
 64
     7
 65
   257
 75
     1
175
     1
 42
1.0
 92
        8
 66
     7
 43
1.0
 76
     1
 77
     6
 78
     2
 67
     7
 79
     5
170
     0
171
     0
290
     0
174
     0
 93
        1
 44
-50.0
173
     0
291
     1
 45
0.0
1001
ACAD
1000
AcDbSavedByObjectVersion
1070
     0
  0
VISUALSTYLE
  5
39
102
{ACAD_REACTORS
330
2A
102
}
102
{ACAD_XDICTIONARY
360
2D2
102
}
330
2A
100
AcDbVisualStyle
  2
Facepattern
 70
    15
 71
     2
 72
     2
 73
     0
 90
        0
 40
-0.6
 41
-30.0
 62
     5
 63
     7
 74
     1
 91
        4
 64
     7
 65
   257
 75
     1
175
     1
 42
1.0
 92
        8
 66
     7
 43
1.0
 76
     1
 77
     6
 78
     2
 67
     7
 79
     5
170
     0
171
     0
290
     0
174
     0
 93
        1
 44
0.0
173
     0
291
     1
 45
0.0
1001
ACAD
1000
AcDbSavedByObjectVersion
1070
     0
  0
VISUALSTYLE
  5
2B
102
{ACAD_REACTORS
330
2A
102
}
102
{ACAD_XDICTIONARY
360
2B6
102
}
330
2A
100
AcDbVisualStyle
  2
Flat
 70
     0
 71
     2
 72
     1
 73
     1
 90
        2
 40
-0.6
 41
30.0
 62
     5
 63
     7
 74
     0
 91
        4
 64
     7
 65
   257
 75
     1
175
     1
 42
1.0
 92
        8
 66
     7
 43
1.0
 76
     1
 77
     6
 78
     2
 67
     7
 79
     5
170
     0
171
     0
290
     0
174
     0
 93
       13
 44
0.0
173
     0
291
     1
 45
0.0
1001
ACAD
1000
AcDbSavedByObjectVersion
1070
     0
  0
VISUALSTYLE
  5
2C
102
{ACAD_REACTORS
330
2A
102
}
102
{ACAD_XDICTIONARY
360
2B8
102
}
330
2A
100
AcDbVisualStyle
  2
FlatWithEdges
 70
     1
 71
     2
 72
     1
 73
     1
 90
        2
 40
-0.6
 41
30.0
 62
     5
 63
     7
 74
     1
 91
        4
 64
     7
 65
   257
 75
     1
175
     1
 42
1.0
 92
        0
 66
   257
 43
1.0
 76
     1
 77
     6
 78
     2
 67
     7
 79
     5
170
     0
171
     0
290
     0
174
     0
 93
       13
 44
0.0
173
     0
291
     1
 45
0.0
1001
ACAD
1000
AcDbSavedByObjectVersion
1070
     0
  0
VISUALSTYLE
  5
2D
102
{ACAD_REACTORS
330
2A
102
}
102
{ACAD_XDICTIONARY
360
2BA
102
}
330
2A
100
AcDbVisualStyle
  2
Gouraud
 70
     2
 71
     2
 72
     2
 73
     1
 90
        2
 40
-0.6
 41
30.0
 62
     5
 63
     7
 74
     0
 91
        4
 64
     7
 65
   257
 75
     1
175
     1
 42
1.0
 92
        0
 66
     7
 43
1.0
 76
     1
 77
     6
 78
     2
 67
     7
 79
     5
170
     0
171
     0
290
     0
174
     0
 93
       13
 44
0.0
173
     0
291
     1
 45
0.0
1001
ACAD
1000
AcDbSavedByObjectVersion
1070
     0
  0
VISUALSTYLE
  5
2E
102
{ACAD_REACTORS
330
2A
102
}
102
{ACAD_XDICTIONARY
360
2BC
102
}
330
2A
100
AcDbVisualStyle
  2
GouraudWithEdges
 70
     3
 71
     2
 72
     2
 73
     1
 90
        2
 40
-0.6
 41
30.0
 62
     5
 63
     7
 74
     1
 91
        4
 64
     7
 65
   257
 75
     1
175
     1
 42
1.0
 92
        0
 66
   257
 43
1.0
 76
     1
 77
     6
 78
     2
 67
     7
 79
     5
170
     0
171
     0
290
     0
174
     0
 93
       13
 44
0.0
173
     0
291
     1
 45
0.0
1001
ACAD
1000
AcDbSavedByObjectVersion
1070
     0
  0
VISUALSTYLE
  5
38
102
{ACAD_REACTORS
330
2A
102
}
102
{ACAD_XDICTIONARY
360
2D0
102
}
330
2A
100
AcDbVisualStyle
  2
Linepattern
 70
    14
 71
     2
 72
     2
 73
     0
 90
        0
 40
-0.6
 41
-30.0
 62
     5
 63
     7
 74
     1
 91
        4
 64
     7
 65
   257
 75
     7
175
     7
 42
1.0
 92
        8
 66
     7
 43
1.0
 76
     1
 77
     6
 78
     2
 67
     7
 79
     5
170
     0
171
     0
290
     0
174
     0
 93
        1
 44
0.0
173
     0
291
     1
 45
0.0
1001
ACAD
1000
AcDbSavedByObjectVersion
1070
     0
  0
VISUALSTYLE
  5
33
102
{ACAD_REACTORS
330
2A
102
}
102
{ACAD_XDICTIONARY
360
2C6
102
}
330
2A
100
AcDbVisualStyle
  2
Realistic
 70
     8
 71
     2
 72
     2
 73
     0
 90
        0
 40
-0.6
 41
-30.0
 62
     5
 63
     7
 74
     1
 91
        0
 64
     7
 65
   257
 75
     1
175
     1
 42
1.0
 92
        8
 66
     8
 43
1.0
 76
     1
 77
     6
 78
     2
 67
     7
 79
     5
170
     0
171
     0
290
     0
174
     0
 93
       13
 44
0.0
173
     0
291
     0
 45
0.0
1001
ACAD
1000
AcDbSavedByObjectVersion
1070
     0
  0
VISUALSTYLE
  5
37
102
{ACAD_REACTORS
330
2A
102
}
102
{ACAD_XDICTIONARY
360
2CE
102
}
330
2A
100
AcDbVisualStyle
  2
Thicken
 70
    13
 71
     2
 72
     2
 73
     0
 90
        0
 40
-0.6
 41
-30.0
 62
     5
 63
     7
 74
     1
 91
        4
 64
     7
 65
   257
 75
     1
175
     1
 42
1.0
 92
       12
 66
     7
 43
1.0
 76
     1
 77
     6
 78
     2
 67
     7
 79
     5
170
     0
171
     0
290
     0
174
     0
 93
        1
 44
0.0
173
     0
291
     1
 45
0.0
1001
ACAD
1000
AcDbSavedByObjectVersion
1070
     0
  0
DICTIONARYVAR
  5
2B4
102
{ACAD_REACTORS
330
2B1
102
}
330
2B1
100
DictionaryVariables
280
     0
  1
2
  0
DICTIONARYVAR
  5
2B5
102
{ACAD_REACTORS
330
2B1
102
}
330
2B1
100
DictionaryVariables
280
     0
  1
1
  0
DICTIONARY
  5
2D8
330
3D
100
AcDbDictionary
280
     1
281
     1
  3
ACAD_XREC_ROUNDTRIP
360
2D9
  0
DICTIONARY
  5
2D6
330
3C
100
AcDbDictionary
280
     1
281
     1
  3
ACAD_XREC_ROUNDTRIP
360
2D7
  0
DICTIONARY
  5
2DA
330
3E
100
AcDbDictionary
280
     1
281
     1
  3
ACAD_XREC_ROUNDTRIP
360
2DB
  0
DICTIONARY
  5
2BE
330
2F
100
AcDbDictionary
280
     1
281
     1
  3
ACAD_XREC_ROUNDTRIP
360
2BF
  0
DICTIONARY
  5
2C2
330
31
100
AcDbDictionary
280
     1
281
     1
  3
ACAD_XREC_ROUNDTRIP
360
2C3
  0
DICTIONARY
  5
2C0
330
30
100
AcDbDictionary
280
     1
281
     1
  3
ACAD_XREC_ROUNDTRIP
360
2C1
  0
DICTIONARY
  5
2C4
330
32
100
AcDbDictionary
280
     1
281
     1
  3
ACAD_XREC_ROUNDTRIP
360
2C5
  0
DICTIONARY
  5
2CC
330
36
100
AcDbDictionary
280
     1
281
     1
  3
ACAD_XREC_ROUNDTRIP
360
2CD
  0
DICTIONARY
  5
2D4
330
3A
100
AcDbDictionary
280
     1
281
     1
  3
ACAD_XREC_ROUNDTRIP
360
2D5
  0
DICTIONARY
  5
2C8
330
34
100
AcDbDictionary
280
     1
281
     1
  3
ACAD_XREC_ROUNDTRIP
360
2C9
  0
DICTIONARY
  5
2CA
330
35
100
AcDbDictionary
280
     1
281
     1
  3
ACAD_XREC_ROUNDTRIP
360
2CB
  0
DICTIONARY
  5
2D2
330
39
100
AcDbDictionary
280
     1
281
     1
  3
ACAD_XREC_ROUNDTRIP
360
2D3
  0
DICTIONARY
  5
2B6
330
2B
100
AcDbDictionary
280
     1
281
     1
  3
ACAD_XREC_ROUNDTRIP
360
2B7
  0
DICTIONARY
  5
2B8
330
2C
100
AcDbDictionary
280
     1
281
     1
  3
ACAD_XREC_ROUNDTRIP
360
2B9
  0
DICTIONARY
  5
2BA
330
2D
100
AcDbDictionary
280
     1
281
     1
  3
ACAD_XREC_ROUNDTRIP
360
2BB
  0
DICTIONARY
  5
2BC
330
2E
100
AcDbDictionary
280
     1
281
     1
  3
ACAD_XREC_ROUNDTRIP
360
2BD
  0
DICTIONARY
  5
2D0
330
38
100
AcDbDictionary
280
     1
281
     1
  3
ACAD_XREC_ROUNDTRIP
360
2D1
  0
DICTIONARY
  5
2C6
330
33
100
AcDbDictionary
280
     1
281
     1
  3
ACAD_XREC_ROUNDTRIP
360
2C7
  0
DICTIONARY
  5
2CE
330
37
100
AcDbDictionary
280
     1
281
     1
  3
ACAD_XREC_ROUNDTRIP
360
2CF
  0
XRECORD
  5
2D9
102
{ACAD_REACTORS
330
2D8
102
}
330
2D8
100
AcDbXrecord
280
     1
102
MATERIAL
148
0.0
149
0.0
149
0.0
 93
        0
 94
      127
282
     0
 72
     1
 77
     1
171
     1
175
     1
179
     1
273
     0
  0
XRECORD
  5
2D7
102
{ACAD_REACTORS
330
2D6
102
}
330
2D6
100
AcDbXrecord
280
     1
102
MATERIAL
148
0.0
149
0.0
149
0.0
 93
        0
 94
      127
282
     0
 72
     1
 77
     1
171
     1
175
     1
179
     1
273
     0
  0
XRECORD
  5
2DB
102
{ACAD_REACTORS
330
2DA
102
}
330
2DA
100
AcDbXrecord
280
     1
102
MATERIAL
148
0.0
149
0.0
149
0.0
 93
        0
 94
      127
282
     0
 72
     1
 77
     1
171
     1
175
     1
179
     1
273
     0
  0
XRECORD
  5
2BF
102
{ACAD_REACTORS
330
2BE
102
}
330
2BE
100
AcDbXrecord
280
     1
102
RTVSPropertyOp0
 70
     1
102
RTVSPropertyOp1
 70
     1
102
RTVSPropertyOp2
 70
     1
102
RTVSPropertyOp3
 70
     1
102
RTVSPropertyOp4
 70
     1
102
RTVSPropertyOp5
 70
     1
102
RTVSPropertyOp6
 70
     1
102
RTVSPropertyOp7
 70
     1
102
RTVSPropertyOp8
 70
     1
102
RTVSPropertyOp9
 70
     1
102
RTVSPropertyOp10
 70
     1
102
RTVSPropertyOp11
 70
     1
102
RTVSPropertyOp12
 70
     1
102
RTVSPropertyOp13
 70
     1
102
RTVSPropertyOp14
 70
     1
102
RTVSPropertyOp15
 70
     1
102
RTVSPropertyOp16
 70
     1
102
RTVSPropertyOp17
 70
     1
102
RTVSPropertyOp18
 70
     1
102
RTVSPropertyOp19
 70
     1
102
RTVSPropertyOp20
 70
     1
102
RTVSPropertyOp21
 70
     1
102
RTVSPropertyOp22
 70
     1
102
RTVSPropertyOp23
 70
     1
102
RTVSPropertyOp24
 70
     1
102
RTVSPropertyOp25
 70
     1
102
RTVSPropertyOp26
 70
     1
102
RTVSPropertyOp27
 70
     1
102
RTVSPropertyOp28
 70
     1
102
RTVSPropertyOp29
 70
     1
102
RTVSPropertyOp30
 70
     1
102
RTVSPropertyOp31
 70
     1
102
RTVSPropertyOp32
 70
     1
  0
XRECORD
  5
2C3
102
{ACAD_REACTORS
330
2C2
102
}
330
2C2
100
AcDbXrecord
280
     1
102
RTVSPropertyOp0
 70
     1
102
RTVSPropertyOp1
 70
     1
102
RTVSPropertyOp2
 70
     1
102
RTVSPropertyOp3
 70
     1
102
RTVSPropertyOp4
 70
     1
102
RTVSPropertyOp5
 70
     1
102
RTVSPropertyOp6
 70
     1
102
RTVSPropertyOp7
 70
     1
102
RTVSPropertyOp8
 70
     1
102
RTVSPropertyOp9
 70
     1
102
RTVSPropertyOp10
 70
     1
102
RTVSPropertyOp11
 70
     1
102
RTVSPropertyOp12
 70
     1
102
RTVSPropertyOp13
 70
     1
102
RTVSPropertyOp14
 70
     1
102
RTVSPropertyOp15
 70
     1
102
RTVSPropertyOp16
 70
     1
102
RTVSPropertyOp17
 70
     1
102
RTVSPropertyOp18
 70
     1
102
RTVSPropertyOp19
 70
     1
102
RTVSPropertyOp20
 70
     1
102
RTVSPropertyOp21
 70
     1
102
RTVSPropertyOp22
 70
     1
102
RTVSPropertyOp23
 70
     1
102
RTVSPropertyOp24
 70
     1
102
RTVSPropertyOp25
 70
     1
102
RTVSPropertyOp26
 70
     1
102
RTVSPropertyOp27
 70
     1
102
RTVSPropertyOp28
 70
     1
102
RTVSPropertyOp29
 70
     1
102
RTVSPropertyOp30
 70
     1
102
RTVSPropertyOp31
 70
     1
102
RTVSPropertyOp32
 70
     1
  0
XRECORD
  5
2C1
102
{ACAD_REACTORS
330
2C0
102
}
330
2C0
100
AcDbXrecord
280
     1
102
RTVSPropertyOp0
 70
     1
102
RTVSPropertyOp1
 70
     1
102
RTVSPropertyOp2
 70
     1
102
RTVSPropertyOp3
 70
     1
102
RTVSPropertyOp4
 70
     1
102
RTVSPropertyOp5
 70
     1
102
RTVSPropertyOp6
 70
     1
102
RTVSPropertyOp7
 70
     1
102
RTVSPropertyOp8
 70
     1
102
RTVSPropertyOp9
 70
     1
102
RTVSPropertyOp10
 70
     1
102
RTVSPropertyOp11
 70
     1
102
RTVSPropertyOp12
 70
     1
102
RTVSPropertyOp13
 70
     1
102
RTVSPropertyOp14
 70
     1
102
RTVSPropertyOp15
 70
     1
102
RTVSPropertyOp16
 70
     1
102
RTVSPropertyOp17
 70
     1
102
RTVSPropertyOp18
 70
     1
102
RTVSPropertyOp19
 70
     1
102
RTVSPropertyOp20
 70
     1
102
RTVSPropertyOp21
 70
     1
102
RTVSPropertyOp22
 70
     1
102
RTVSPropertyOp23
 70
     1
102
RTVSPropertyOp24
 70
     1
102
RTVSPropertyOp25
 70
     1
102
RTVSPropertyOp26
 70
     1
102
RTVSPropertyOp27
 70
     1
102
RTVSPropertyOp28
 70
     1
102
RTVSPropertyOp29
 70
     1
102
RTVSPropertyOp30
 70
     1
102
RTVSPropertyOp31
 70
     1
102
RTVSPropertyOp32
 70
     1
  0
XRECORD
  5
2C5
102
{ACAD_REACTORS
330
2C4
102
}
330
2C4
100
AcDbXrecord
280
     1
102
RTVSPropertyOp0
 70
     1
102
RTVSPropertyOp1
 70
     1
102
RTVSPropertyOp2
 70
     1
102
RTVSPropertyOp3
 70
     1
102
RTVSPropertyOp4
 70
     1
102
RTVSPropertyOp5
 70
     1
102
RTVSPropertyOp6
 70
     1
102
RTVSPropertyOp7
 70
     1
102
RTVSPropertyOp8
 70
     1
102
RTVSPropertyOp9
 70
     1
102
RTVSPropertyOp10
 70
     1
102
RTVSPropertyOp11
 70
     1
102
RTVSPropertyOp12
 70
     1
102
RTVSPropertyOp13
 70
     1
102
RTVSPropertyOp14
 70
     1
102
RTVSPropertyOp15
 70
     1
102
RTVSPropertyOp16
 70
     1
102
RTVSPropertyOp17
 70
     1
102
RTVSPropertyOp18
 70
     1
102
RTVSPropertyOp19
 70
     1
102
RTVSPropertyOp20
 70
     1
102
RTVSPropertyOp21
 70
     1
102
RTVSPropertyOp22
 70
     1
102
RTVSPropertyOp23
 70
     1
102
RTVSPropertyOp24
 70
     1
102
RTVSPropertyOp25
 70
     1
102
RTVSPropertyOp26
 70
     1
102
RTVSPropertyOp27
 70
     1
102
RTVSPropertyOp28
 70
     1
102
RTVSPropertyOp29
 70
     1
102
RTVSPropertyOp30
 70
     1
102
RTVSPropertyOp31
 70
     1
102
RTVSPropertyOp32
 70
     1
  0
XRECORD
  5
2CD
102
{ACAD_REACTORS
330
2CC
102
}
330
2CC
100
AcDbXrecord
280
     1
102
RTVSPropertyOp0
 70
     1
102
RTVSPropertyOp1
 70
     1
102
RTVSPropertyOp2
 70
     1
102
RTVSPropertyOp3
 70
     1
102
RTVSPropertyOp4
 70
     1
102
RTVSPropertyOp5
 70
     1
102
RTVSPropertyOp6
 70
     1
102
RTVSPropertyOp7
 70
     1
102
RTVSPropertyOp8
 70
     1
102
RTVSPropertyOp9
 70
     1
102
RTVSPropertyOp10
 70
     1
102
RTVSPropertyOp11
 70
     1
102
RTVSPropertyOp12
 70
     1
102
RTVSPropertyOp13
 70
     1
102
RTVSPropertyOp14
 70
     1
102
RTVSPropertyOp15
 70
     1
102
RTVSPropertyOp16
 70
     1
102
RTVSPropertyOp17
 70
     1
102
RTVSPropertyOp18
 70
     1
102
RTVSPropertyOp19
 70
     1
102
RTVSPropertyOp20
 70
     1
102
RTVSPropertyOp21
 70
     1
102
RTVSPropertyOp22
 70
     1
102
RTVSPropertyOp23
 70
     1
102
RTVSPropertyOp24
 70
     1
102
RTVSPropertyOp25
 70
     1
102
RTVSPropertyOp26
 70
     1
102
RTVSPropertyOp27
 70
     1
102
RTVSPropertyOp28
 70
     1
102
RTVSPropertyOp29
 70
     1
102
RTVSPropertyOp30
 70
     1
102
RTVSPropertyOp31
 70
     1
102
RTVSPropertyOp32
 70
     1
  0
XRECORD
  5
2D5
102
{ACAD_REACTORS
330
2D4
102
}
330
2D4
100
AcDbXrecord
280
     1
102
RTVSPropertyOp0
 70
     1
102
RTVSPropertyOp1
 70
     1
102
RTVSPropertyOp2
 70
     1
102
RTVSPropertyOp3
 70
     1
102
RTVSPropertyOp4
 70
     1
102
RTVSPropertyOp5
 70
     1
102
RTVSPropertyOp6
 70
     1
102
RTVSPropertyOp7
 70
     1
102
RTVSPropertyOp8
 70
     1
102
RTVSPropertyOp9
 70
     1
102
RTVSPropertyOp10
 70
     1
102
RTVSPropertyOp11
 70
     1
102
RTVSPropertyOp12
 70
     1
102
RTVSPropertyOp13
 70
     1
102
RTVSPropertyOp14
 70
     1
102
RTVSPropertyOp15
 70
     1
102
RTVSPropertyOp16
 70
     1
102
RTVSPropertyOp17
 70
     1
102
RTVSPropertyOp18
 70
     1
102
RTVSPropertyOp19
 70
     1
102
RTVSPropertyOp20
 70
     1
102
RTVSPropertyOp21
 70
     1
102
RTVSPropertyOp22
 70
     1
102
RTVSPropertyOp23
 70
     1
102
RTVSPropertyOp24
 70
     1
102
RTVSPropertyOp25
 70
     1
102
RTVSPropertyOp26
 70
     1
102
RTVSPropertyOp27
 70
     1
102
RTVSPropertyOp28
 70
     1
102
RTVSPropertyOp29
 70
     1
102
RTVSPropertyOp30
 70
     1
102
RTVSPropertyOp31
 70
     1
102
RTVSPropertyOp32
 70
     1
  0
XRECORD
  5
2C9
102
{ACAD_REACTORS
330
2C8
102
}
330
2C8
100
AcDbXrecord
280
     1
102
RTVSPropertyOp0
 70
     1
102
RTVSPropertyOp1
 70
     1
102
RTVSPropertyOp2
 70
     1
102
RTVSPropertyOp3
 70
     1
102
RTVSPropertyOp4
 70
     1
102
RTVSPropertyOp5
 70
     1
102
RTVSPropertyOp6
 70
     1
102
RTVSPropertyOp7
 70
     1
102
RTVSPropertyOp8
 70
     1
102
RTVSPropertyOp9
 70
     1
102
RTVSPropertyOp10
 70
     1
102
RTVSPropertyOp11
 70
     1
102
RTVSPropertyOp12
 70
     1
102
RTVSPropertyOp13
 70
     1
102
RTVSPropertyOp14
 70
     1
102
RTVSPropertyOp15
 70
     1
102
RTVSPropertyOp16
 70
     1
102
RTVSPropertyOp17
 70
     1
102
RTVSPropertyOp18
 70
     1
102
RTVSPropertyOp19
 70
     1
102
RTVSPropertyOp20
 70
     1
102
RTVSPropertyOp21
 70
     1
102
RTVSPropertyOp22
 70
     1
102
RTVSPropertyOp23
 70
     1
102
RTVSPropertyOp24
 70
     1
102
RTVSPropertyOp25
 70
     1
102
RTVSPropertyOp26
 70
     1
102
RTVSPropertyOp27
 70
     1
102
RTVSPropertyOp28
 70
     1
102
RTVSPropertyOp29
 70
     1
102
RTVSPropertyOp30
 70
     1
102
RTVSPropertyOp31
 70
     1
102
RTVSPropertyOp32
 70
     1
  0
XRECORD
  5
2CB
102
{ACAD_REACTORS
330
2CA
102
}
330
2CA
100
AcDbXrecord
280
     1
102
RTVSPropertyOp0
 70
     1
102
RTVSPropertyOp1
 70
     1
102
RTVSPropertyOp2
 70
     1
102
RTVSPropertyOp3
 70
     1
102
RTVSPropertyOp4
 70
     1
102
RTVSPropertyOp5
 70
     1
102
RTVSPropertyOp6
 70
     1
102
RTVSPropertyOp7
 70
     1
102
RTVSPropertyOp8
 70
     1
102
RTVSPropertyOp9
 70
     1
102
RTVSPropertyOp10
 70
     1
102
RTVSPropertyOp11
 70
     1
102
RTVSPropertyOp12
 70
     1
102
RTVSPropertyOp13
 70
     1
102
RTVSPropertyOp14
 70
     1
102
RTVSPropertyOp15
 70
     1
102
RTVSPropertyOp16
 70
     1
102
RTVSPropertyOp17
 70
     1
102
RTVSPropertyOp18
 70
     1
102
RTVSPropertyOp19
 70
     1
102
RTVSPropertyOp20
 70
     1
102
RTVSPropertyOp21
 70
     1
102
RTVSPropertyOp22
 70
     1
102
RTVSPropertyOp23
 70
     1
102
RTVSPropertyOp24
 70
     1
102
RTVSPropertyOp25
 70
     1
102
RTVSPropertyOp26
 70
     1
102
RTVSPropertyOp27
 70
     1
102
RTVSPropertyOp28
 70
     1
102
RTVSPropertyOp29
 70
     1
102
RTVSPropertyOp30
 70
     1
102
RTVSPropertyOp31
 70
     1
102
RTVSPropertyOp32
 70
     1
  0
XRECORD
  5
2D3
102
{ACAD_REACTORS
330
2D2
102
}
330
2D2
100
AcDbXrecord
280
     1
102
RTVSPropertyOp0
 70
     1
102
RTVSPropertyOp1
 70
     1
102
RTVSPropertyOp2
 70
     1
102
RTVSPropertyOp3
 70
     1
102
RTVSPropertyOp4
 70
     1
102
RTVSPropertyOp5
 70
     1
102
RTVSPropertyOp6
 70
     1
102
RTVSPropertyOp7
 70
     1
102
RTVSPropertyOp8
 70
     1
102
RTVSPropertyOp9
 70
     1
102
RTVSPropertyOp10
 70
     1
102
RTVSPropertyOp11
 70
     1
102
RTVSPropertyOp12
 70
     1
102
RTVSPropertyOp13
 70
     1
102
RTVSPropertyOp14
 70
     1
102
RTVSPropertyOp15
 70
     1
102
RTVSPropertyOp16
 70
     1
102
RTVSPropertyOp17
 70
     1
102
RTVSPropertyOp18
 70
     1
102
RTVSPropertyOp19
 70
     1
102
RTVSPropertyOp20
 70
     1
102
RTVSPropertyOp21
 70
     1
102
RTVSPropertyOp22
 70
     1
102
RTVSPropertyOp23
 70
     1
102
RTVSPropertyOp24
 70
     1
102
RTVSPropertyOp25
 70
     1
102
RTVSPropertyOp26
 70
     1
102
RTVSPropertyOp27
 70
     1
102
RTVSPropertyOp28
 70
     1
102
RTVSPropertyOp29
 70
     1
102
RTVSPropertyOp30
 70
     1
102
RTVSPropertyOp31
 70
     1
102
RTVSPropertyOp32
 70
     1
  0
XRECORD
  5
2B7
102
{ACAD_REACTORS
330
2B6
102
}
330
2B6
100
AcDbXrecord
280
     1
102
RTVSPropertyOp0
 70
     1
102
RTVSPropertyOp1
 70
     1
102
RTVSPropertyOp2
 70
     1
102
RTVSPropertyOp3
 70
     1
102
RTVSPropertyOp4
 70
     1
102
RTVSPropertyOp5
 70
     1
102
RTVSPropertyOp6
 70
     1
102
RTVSPropertyOp7
 70
     1
102
RTVSPropertyOp8
 70
     1
102
RTVSPropertyOp9
 70
     1
102
RTVSPropertyOp10
 70
     1
102
RTVSPropertyOp11
 70
     1
102
RTVSPropertyOp12
 70
     1
102
RTVSPropertyOp13
 70
     1
102
RTVSPropertyOp14
 70
     1
102
RTVSPropertyOp15
 70
     1
102
RTVSPropertyOp16
 70
     1
102
RTVSPropertyOp17
 70
     1
102
RTVSPropertyOp18
 70
     1
102
RTVSPropertyOp19
 70
     1
102
RTVSPropertyOp20
 70
     1
102
RTVSPropertyOp21
 70
     1
102
RTVSPropertyOp22
 70
     1
102
RTVSPropertyOp23
 70
     1
102
RTVSPropertyOp24
 70
     1
102
RTVSPropertyOp25
 70
     1
102
RTVSPropertyOp26
 70
     1
102
RTVSPropertyOp27
 70
     1
102
RTVSPropertyOp28
 70
     1
102
RTVSPropertyOp29
 70
     1
102
RTVSPropertyOp30
 70
     1
102
RTVSPropertyOp31
 70
     1
102
RTVSPropertyOp32
 70
     1
  0
XRECORD
  5
2B9
102
{ACAD_REACTORS
330
2B8
102
}
330
2B8
100
AcDbXrecord
280
     1
102
RTVSPropertyOp0
 70
     1
102
RTVSPropertyOp1
 70
     1
102
RTVSPropertyOp2
 70
     1
102
RTVSPropertyOp3
 70
     1
102
RTVSPropertyOp4
 70
     1
102
RTVSPropertyOp5
 70
     1
102
RTVSPropertyOp6
 70
     1
102
RTVSPropertyOp7
 70
     1
102
RTVSPropertyOp8
 70
     1
102
RTVSPropertyOp9
 70
     1
102
RTVSPropertyOp10
 70
     1
102
RTVSPropertyOp11
 70
     1
102
RTVSPropertyOp12
 70
     1
102
RTVSPropertyOp13
 70
     1
102
RTVSPropertyOp14
 70
     1
102
RTVSPropertyOp15
 70
     1
102
RTVSPropertyOp16
 70
     1
102
RTVSPropertyOp17
 70
     1
102
RTVSPropertyOp18
 70
     1
102
RTVSPropertyOp19
 70
     1
102
RTVSPropertyOp20
 70
     1
102
RTVSPropertyOp21
 70
     1
102
RTVSPropertyOp22
 70
     1
102
RTVSPropertyOp23
 70
     1
102
RTVSPropertyOp24
 70
     1
102
RTVSPropertyOp25
 70
     1
102
RTVSPropertyOp26
 70
     1
102
RTVSPropertyOp27
 70
     1
102
RTVSPropertyOp28
 70
     1
102
RTVSPropertyOp29
 70
     1
102
RTVSPropertyOp30
 70
     1
102
RTVSPropertyOp31
 70
     1
102
RTVSPropertyOp32
 70
     1
  0
XRECORD
  5
2BB
102
{ACAD_REACTORS
330
2BA
102
}
330
2BA
100
AcDbXrecord
280
     1
102
RTVSPropertyOp0
 70
     1
102
RTVSPropertyOp1
 70
     1
102
RTVSPropertyOp2
 70
     1
102
RTVSPropertyOp3
 70
     1
102
RTVSPropertyOp4
 70
     1
102
RTVSPropertyOp5
 70
     1
102
RTVSPropertyOp6
 70
     1
102
RTVSPropertyOp7
 70
     1
102
RTVSPropertyOp8
 70
     1
102
RTVSPropertyOp9
 70
     1
102
RTVSPropertyOp10
 70
     1
102
RTVSPropertyOp11
 70
     1
102
RTVSPropertyOp12
 70
     1
102
RTVSPropertyOp13
 70
     1
102
RTVSPropertyOp14
 70
     1
102
RTVSPropertyOp15
 70
     1
102
RTVSPropertyOp16
 70
     1
102
RTVSPropertyOp17
 70
     1
102
RTVSPropertyOp18
 70
     1
102
RTVSPropertyOp19
 70
     1
102
RTVSPropertyOp20
 70
     1
102
RTVSPropertyOp21
 70
     1
102
RTVSPropertyOp22
 70
     1
102
RTVSPropertyOp23
 70
     1
102
RTVSPropertyOp24
 70
     1
102
RTVSPropertyOp25
 70
     1
102
RTVSPropertyOp26
 70
     1
102
RTVSPropertyOp27
 70
     1
102
RTVSPropertyOp28
 70
     1
102
RTVSPropertyOp29
 70
     1
102
RTVSPropertyOp30
 70
     1
102
RTVSPropertyOp31
 70
     1
102
RTVSPropertyOp32
 70
     1
  0
XRECORD
  5
2BD
102
{ACAD_REACTORS
330
2BC
102
}
330
2BC
100
AcDbXrecord
280
     1
102
RTVSPropertyOp0
 70
     1
102
RTVSPropertyOp1
 70
     1
102
RTVSPropertyOp2
 70
     1
102
RTVSPropertyOp3
 70
     1
102
RTVSPropertyOp4
 70
     1
102
RTVSPropertyOp5
 70
     1
102
RTVSPropertyOp6
 70
     1
102
RTVSPropertyOp7
 70
     1
102
RTVSPropertyOp8
 70
     1
102
RTVSPropertyOp9
 70
     1
102
RTVSPropertyOp10
 70
     1
102
RTVSPropertyOp11
 70
     1
102
RTVSPropertyOp12
 70
     1
102
RTVSPropertyOp13
 70
     1
102
RTVSPropertyOp14
 70
     1
102
RTVSPropertyOp15
 70
     1
102
RTVSPropertyOp16
 70
     1
102
RTVSPropertyOp17
 70
     1
102
RTVSPropertyOp18
 70
     1
102
RTVSPropertyOp19
 70
     1
102
RTVSPropertyOp20
 70
     1
102
RTVSPropertyOp21
 70
     1
102
RTVSPropertyOp22
 70
     1
102
RTVSPropertyOp23
 70
     1
102
RTVSPropertyOp24
 70
     1
102
RTVSPropertyOp25
 70
     1
102
RTVSPropertyOp26
 70
     1
102
RTVSPropertyOp27
 70
     1
102
RTVSPropertyOp28
 70
     1
102
RTVSPropertyOp29
 70
     1
102
RTVSPropertyOp30
 70
     1
102
RTVSPropertyOp31
 70
     1
102
RTVSPropertyOp32
 70
     1
  0
XRECORD
  5
2D1
102
{ACAD_REACTORS
330
2D0
102
}
330
2D0
100
AcDbXrecord
280
     1
102
RTVSPropertyOp0
 70
     1
102
RTVSPropertyOp1
 70
     1
102
RTVSPropertyOp2
 70
     1
102
RTVSPropertyOp3
 70
     1
102
RTVSPropertyOp4
 70
     1
102
RTVSPropertyOp5
 70
     1
102
RTVSPropertyOp6
 70
     1
102
RTVSPropertyOp7
 70
     1
102
RTVSPropertyOp8
 70
     1
102
RTVSPropertyOp9
 70
     1
102
RTVSPropertyOp10
 70
     1
102
RTVSPropertyOp11
 70
     1
102
RTVSPropertyOp12
 70
     1
102
RTVSPropertyOp13
 70
     1
102
RTVSPropertyOp14
 70
     1
102
RTVSPropertyOp15
 70
     1
102
RTVSPropertyOp16
 70
     1
102
RTVSPropertyOp17
 70
     1
102
RTVSPropertyOp18
 70
     1
102
RTVSPropertyOp19
 70
     1
102
RTVSPropertyOp20
 70
     1
102
RTVSPropertyOp21
 70
     1
102
RTVSPropertyOp22
 70
     1
102
RTVSPropertyOp23
 70
     1
102
RTVSPropertyOp24
 70
     1
102
RTVSPropertyOp25
 70
     1
102
RTVSPropertyOp26
 70
     1
102
RTVSPropertyOp27
 70
     1
102
RTVSPropertyOp28
 70
     1
102
RTVSPropertyOp29
 70
     1
102
RTVSPropertyOp30
 70
     1
102
RTVSPropertyOp31
 70
     1
102
RTVSPropertyOp32
 70
     1
  0
XRECORD
  5
2C7
102
{ACAD_REACTORS
330
2C6
102
}
330
2C6
100
AcDbXrecord
280
     1
102
RTVSPropertyOp0
 70
     1
102
RTVSPropertyOp1
 70
     1
102
RTVSPropertyOp2
 70
     1
102
RTVSPropertyOp3
 70
     1
102
RTVSPropertyOp4
 70
     1
102
RTVSPropertyOp5
 70
     1
102
RTVSPropertyOp6
 70
     1
102
RTVSPropertyOp7
 70
     1
102
RTVSPropertyOp8
 70
     1
102
RTVSPropertyOp9
 70
     1
102
RTVSPropertyOp10
 70
     1
102
RTVSPropertyOp11
 70
     1
102
RTVSPropertyOp12
 70
     1
102
RTVSPropertyOp13
 70
     1
102
RTVSPropertyOp14
 70
     1
102
RTVSPropertyOp15
 70
     1
102
RTVSPropertyOp16
 70
     1
102
RTVSPropertyOp17
 70
     1
102
RTVSPropertyOp18
 70
     1
102
RTVSPropertyOp19
 70
     1
102
RTVSPropertyOp20
 70
     1
102
RTVSPropertyOp21
 70
     1
102
RTVSPropertyOp22
 70
     1
102
RTVSPropertyOp23
 70
     1
102
RTVSPropertyOp24
 70
     1
102
RTVSPropertyOp25
 70
     1
102
RTVSPropertyOp26
 70
     1
102
RTVSPropertyOp27
 70
     1
102
RTVSPropertyOp28
 70
     1
102
RTVSPropertyOp29
 70
     1
102
RTVSPropertyOp30
 70
     1
102
RTVSPropertyOp31
 70
     1
102
RTVSPropertyOp32
 70
     1
  0
XRECORD
  5
2CF
102
{ACAD_REACTORS
330
2CE
102
}
330
2CE
100
AcDbXrecord
280
     1
102
RTVSPropertyOp0
 70
     1
102
RTVSPropertyOp1
 70
     1
102
RTVSPropertyOp2
 70
     1
102
RTVSPropertyOp3
 70
     1
102
RTVSPropertyOp4
 70
     1
102
RTVSPropertyOp5
 70
     1
102
RTVSPropertyOp6
 70
     1
102
RTVSPropertyOp7
 70
     1
102
RTVSPropertyOp8
 70
     1
102
RTVSPropertyOp9
 70
     1
102
RTVSPropertyOp10
 70
     1
102
RTVSPropertyOp11
 70
     1
102
RTVSPropertyOp12
 70
     1
102
RTVSPropertyOp13
 70
     1
102
RTVSPropertyOp14
 70
     1
102
RTVSPropertyOp15
 70
     1
102
RTVSPropertyOp16
 70
     1
102
RTVSPropertyOp17
 70
     1
102
RTVSPropertyOp18
 70
     1
102
RTVSPropertyOp19
 70
     1
102
RTVSPropertyOp20
 70
     1
102
RTVSPropertyOp21
 70
     1
102
RTVSPropertyOp22
 70
     1
102
RTVSPropertyOp23
 70
     1
102
RTVSPropertyOp24
 70
     1
102
RTVSPropertyOp25
 70
     1
102
RTVSPropertyOp26
 70
     1
102
RTVSPropertyOp27
 70
     1
102
RTVSPropertyOp28
 70
     1
102
RTVSPropertyOp29
 70
     1
102
RTVSPropertyOp30
 70
     1
102
RTVSPropertyOp31
 70
     1
102
RTVSPropertyOp32
 70
     1
  0
ENDSEC
  0
EOF
